  0
SECTION
  2
HEADER
  9
$ACADVER
  1
AC1018
  9
$ACADMAINTVER
 70
    39
  9
$DWGCODEPAGE
  3
ANSI_1252
  9
$LASTSAVEDBY
  1
fottrem
  9
$INSBASE
 10
0.0
 20
0.0
 30
0.0
  9
$EXTMIN
 10
247.8624707457475
 20
-19.5882934602605
 30
0.0
  9
$EXTMAX
 10
2476.353052417114
 20
1176.108349504039
 30
0.0
  9
$LIMMIN
 10
0.0
 20
0.0
  9
$LIMMAX
 10
12.0
 20
9.0
  9
$ORTHOMODE
 70
     0
  9
$REGENMODE
 70
     1
  9
$FILLMODE
 70
     1
  9
$QTEXTMODE
 70
     0
  9
$MIRRTEXT
 70
     1
  9
$LTSCALE
 40
1.0
  9
$ATTMODE
 70
     0
  9
$TEXTSIZE
 40
0.2
  9
$TRACEWID
 40
0.05
  9
$TEXTSTYLE
  7
Standard
  9
$CLAYER
  8
BEDIENRAUM
  9
$CELTYPE
  6
ByBlock
  9
$CECOLOR
 62
   256
  9
$CELTSCALE
 40
1.0
  9
$DISPSILH
 70
     0
  9
$DIMSCALE
 40
1.0
  9
$DIMASZ
 40
2.0
  9
$DIMEXO
 40
0.0625
  9
$DIMDLI
 40
0.38
  9
$DIMRND
 40
0.0
  9
$DIMDLE
 40
0.0
  9
$DIMEXE
 40
0.18
  9
$DIMTP
 40
0.0
  9
$DIMTM
 40
0.0
  9
$DIMTXT
 40
20.0
  9
$DIMCEN
 40
0.09
  9
$DIMTSZ
 40
0.0
  9
$DIMTOL
 70
     0
  9
$DIMLIM
 70
     0
  9
$DIMTIH
 70
     1
  9
$DIMTOH
 70
     1
  9
$DIMSE1
 70
     0
  9
$DIMSE2
 70
     0
  9
$DIMTAD
 70
     0
  9
$DIMZIN
 70
     0
  9
$DIMBLK
  1

  9
$DIMASO
 70
     1
  9
$DIMSHO
 70
     1
  9
$DIMPOST
  1
<>
  9
$DIMAPOST
  1

  9
$DIMALT
 70
     0
  9
$DIMALTD
 70
     2
  9
$DIMALTF
 40
25.4
  9
$DIMLFAC
 40
1.0
  9
$DIMTOFL
 70
     0
  9
$DIMTVP
 40
0.0
  9
$DIMTIX
 70
     0
  9
$DIMSOXD
 70
     0
  9
$DIMSAH
 70
     0
  9
$DIMBLK1
  1

  9
$DIMBLK2
  1

  9
$DIMSTYLE
  2
Standard
  9
$DIMCLRD
 70
     0
  9
$DIMCLRE
 70
     0
  9
$DIMCLRT
 70
     0
  9
$DIMTFAC
 40
1.0
  9
$DIMGAP
 40
0.09
  9
$DIMJUST
 70
     0
  9
$DIMSD1
 70
     0
  9
$DIMSD2
 70
     0
  9
$DIMTOLJ
 70
     1
  9
$DIMTZIN
 70
     0
  9
$DIMALTZ
 70
     0
  9
$DIMALTTZ
 70
     0
  9
$DIMUPT
 70
     0
  9
$DIMDEC
 70
     4
  9
$DIMTDEC
 70
     4
  9
$DIMALTU
 70
     2
  9
$DIMALTTD
 70
     2
  9
$DIMTXSTY
  7
Standard
  9
$DIMAUNIT
 70
     0
  9
$DIMADEC
 70
     0
  9
$DIMALTRND
 40
0.0
  9
$DIMAZIN
 70
     0
  9
$DIMDSEP
 70
    46
  9
$DIMATFIT
 70
     3
  9
$DIMFRAC
 70
     0
  9
$DIMLDRBLK
  1

  9
$DIMLUNIT
 70
     2
  9
$DIMLWD
 70
    -2
  9
$DIMLWE
 70
    -2
  9
$DIMTMOVE
 70
     2
  9
$LUNITS
 70
     2
  9
$LUPREC
 70
     4
  9
$SKETCHINC
 40
0.1
  9
$FILLETRAD
 40
0.5
  9
$AUNITS
 70
     0
  9
$AUPREC
 70
     0
  9
$MENU
  1
.
  9
$ELEVATION
 40
0.0
  9
$PELEVATION
 40
0.0
  9
$THICKNESS
 40
0.0
  9
$LIMCHECK
 70
     0
  9
$CHAMFERA
 40
0.5
  9
$CHAMFERB
 40
0.5
  9
$CHAMFERC
 40
1.0
  9
$CHAMFERD
 40
0.0
  9
$SKPOLY
 70
     0
  9
$TDCREATE
 40
2453353.800459155
  9
$TDUCREATE
 40
2453353.717125822
  9
$TDUPDATE
 40
2455736.13862963
  9
$TDUUPDATE
 40
2455736.055296296
  9
$TDINDWG
 40
2440594.044946667
  9
$TDUSRTIMER
 40
2440594.044946667
  9
$USRTIMER
 70
     1
  9
$ANGBASE
 50
0.0
  9
$ANGDIR
 70
     0
  9
$PDMODE
 70
     0
  9
$PDSIZE
 40
0.0
  9
$PLINEWID
 40
9.0
  9
$SPLFRAME
 70
     0
  9
$SPLINETYPE
 70
     6
  9
$SPLINESEGS
 70
     8
  9
$HANDSEED
  5
1828
  9
$SURFTAB1
 70
     6
  9
$SURFTAB2
 70
     6
  9
$SURFTYPE
 70
     6
  9
$SURFU
 70
     6
  9
$SURFV
 70
     6
  9
$UCSBASE
  2

  9
$UCSNAME
  2

  9
$UCSORG
 10
0.0
 20
0.0
 30
0.0
  9
$UCSXDIR
 10
1.0
 20
0.0
 30
0.0
  9
$UCSYDIR
 10
0.0
 20
1.0
 30
0.0
  9
$UCSORTHOREF
  2

  9
$UCSORTHOVIEW
 70
     0
  9
$UCSORGTOP
 10
0.0
 20
0.0
 30
0.0
  9
$UCSORGBOTTOM
 10
0.0
 20
0.0
 30
0.0
  9
$UCSORGLEFT
 10
0.0
 20
0.0
 30
0.0
  9
$UCSORGRIGHT
 10
0.0
 20
0.0
 30
0.0
  9
$UCSORGFRONT
 10
0.0
 20
0.0
 30
0.0
  9
$UCSORGBACK
 10
0.0
 20
0.0
 30
0.0
  9
$PUCSBASE
  2

  9
$PUCSNAME
  2

  9
$PUCSORG
 10
0.0
 20
0.0
 30
0.0
  9
$PUCSXDIR
 10
1.0
 20
0.0
 30
0.0
  9
$PUCSYDIR
 10
0.0
 20
1.0
 30
0.0
  9
$PUCSORTHOREF
  2

  9
$PUCSORTHOVIEW
 70
     0
  9
$PUCSORGTOP
 10
0.0
 20
0.0
 30
0.0
  9
$PUCSORGBOTTOM
 10
0.0
 20
0.0
 30
0.0
  9
$PUCSORGLEFT
 10
0.0
 20
0.0
 30
0.0
  9
$PUCSORGRIGHT
 10
0.0
 20
0.0
 30
0.0
  9
$PUCSORGFRONT
 10
0.0
 20
0.0
 30
0.0
  9
$PUCSORGBACK
 10
0.0
 20
0.0
 30
0.0
  9
$USERI1
 70
     0
  9
$USERI2
 70
     0
  9
$USERI3
 70
     0
  9
$USERI4
 70
     0
  9
$USERI5
 70
     0
  9
$USERR1
 40
0.0
  9
$USERR2
 40
0.0
  9
$USERR3
 40
0.0
  9
$USERR4
 40
0.0
  9
$USERR5
 40
0.0
  9
$WORLDVIEW
 70
     1
  9
$SHADEDGE
 70
     3
  9
$SHADEDIF
 70
    70
  9
$TILEMODE
 70
     1
  9
$MAXACTVP
 70
    64
  9
$PINSBASE
 10
0.0
 20
0.0
 30
0.0
  9
$PLIMCHECK
 70
     0
  9
$PEXTMIN
 10
0.0
 20
0.0
 30
0.0
  9
$PEXTMAX
 10
12.0
 20
9.0
 30
0.0
  9
$PLIMMIN
 10
0.0
 20
0.0
  9
$PLIMMAX
 10
12.0
 20
9.0
  9
$UNITMODE
 70
     0
  9
$VISRETAIN
 70
     1
  9
$PLINEGEN
 70
     0
  9
$PSLTSCALE
 70
     1
  9
$TREEDEPTH
 70
  3020
  9
$CMLSTYLE
  2
Standard
  9
$CMLJUST
 70
     0
  9
$CMLSCALE
 40
1.0
  9
$PROXYGRAPHICS
 70
     1
  9
$MEASUREMENT
 70
     0
  9
$CELWEIGHT
370
    -1
  9
$ENDCAPS
280
     0
  9
$JOINSTYLE
280
     0
  9
$LWDISPLAY
290
     0
  9
$INSUNITS
 70
     0
  9
$HYPERLINKBASE
  1

  9
$STYLESHEET
  1

  9
$XEDIT
290
     0
  9
$CEPSNTYPE
380
     0
  9
$PSTYLEMODE
290
     1
  9
$FINGERPRINTGUID
  2
{EB6B7BFF-1858-40A0-B95F-7866352CC0FB}
  9
$VERSIONGUID
  2
{FAEB1C32-E019-11D5-929B-00C0DF256EC4}
  9
$EXTNAMES
290
     1
  9
$PSVPSCALE
 40
0.0
  9
$OLESTARTUP
290
     0
  9
$SORTENTS
280
   127
  9
$INDEXCTL
280
     0
  9
$HIDETEXT
280
     1
  9
$XCLIPFRAME
290
     0
  9
$HALOGAP
280
     0
  9
$OBSCOLOR
 70
   257
  9
$OBSLTYPE
280
     0
  9
$INTERSECTIONDISPLAY
280
     0
  9
$INTERSECTIONCOLOR
 70
   257
  9
$DIMASSOC
280
     2
  9
$PROJECTNAME
  1

  0
ENDSEC
  0
SECTION
  2
CLASSES
  0
CLASS
  1
ACDBDICTIONARYWDFLT
  2
AcDbDictionaryWithDefault
  3
ObjectDBX Classes
 90
        0
 91
        3
280
     0
281
     0
  0
CLASS
  1
ACDBPLACEHOLDER
  2
AcDbPlaceHolder
  3
ObjectDBX Classes
 90
        0
 91
        1
280
     0
281
     0
  0
CLASS
  1
LAYOUT
  2
AcDbLayout
  3
ObjectDBX Classes
 90
        0
 91
        1
280
     0
281
     0
  0
CLASS
  1
DICTIONARYVAR
  2
AcDbDictionaryVar
  3
ObjectDBX Classes
 90
        0
 91
        3
280
     0
281
     0
  0
CLASS
  1
TABLESTYLE
  2
AcDbTableStyle
  3
ObjectDBX Classes
 90
     2047
 91
        3
280
     0
281
     0
  0
ENDSEC
  0
SECTION
  2
TABLES
  0
TABLE
  2
VPORT
  5
8
330
0
100
AcDbSymbolTable
 70
     2
  0
VPORT
  5
97
330
8
100
AcDbSymbolTableRecord
100
AcDbViewportTableRecord
  2
*ACTIVE
 70
     0
 10
0.0
 20
0.0
 11
1.0
 21
1.0
 12
1735.060947583173
 22
392.2773314627326
 13
0.0
 23
0.0
 14
0.5
 24
0.5
 15
0.5
 25
0.5
 16
0.0
 26
0.0
 36
1.0
 17
0.0
 27
0.0
 37
0.0
 40
2116.701476423195
 41
1.972972972850329
 42
50.0
 43
0.0
 44
0.0
 50
0.0
 51
0.0
 71
    16
 72
   100
 73
     1
 74
     3
 75
     0
 76
     0
 77
     0
 78
     0
281
     0
 65
     1
110
0.0
120
0.0
130
0.0
111
1.0
121
0.0
131
0.0
112
0.0
122
1.0
132
0.0
 79
     0
146
0.0
  0
ENDTAB
  0
TABLE
  2
LTYPE
  5
5
330
0
100
AcDbSymbolTable
 70
     1
  0
LTYPE
  5
14
330
5
100
AcDbSymbolTableRecord
100
AcDbLinetypeTableRecord
  2
ByBlock
 70
     0
  3

 72
    65
 73
     0
 40
0.0
  0
LTYPE
  5
15
330
5
100
AcDbSymbolTableRecord
100
AcDbLinetypeTableRecord
  2
ByLayer
 70
     0
  3

 72
    65
 73
     0
 40
0.0
  0
LTYPE
  5
16
330
5
100
AcDbSymbolTableRecord
100
AcDbLinetypeTableRecord
  2
Continuous
 70
     0
  3
Default Line
 72
    65
 73
     0
 40
0.0
  0
ENDTAB
  0
TABLE
  2
LAYER
  5
2
330
0
100
AcDbSymbolTable
 70
     5
  0
LAYER
  5
10
330
2
100
AcDbSymbolTableRecord
100
AcDbLayerTableRecord
  2
0
 70
     0
 62
     7
  6
Continuous
370
    -3
390
F
  0
LAYER
  5
1546
330
2
100
AcDbSymbolTableRecord
100
AcDbLayerTableRecord
  2
DEFPOINTS
 70
     0
 62
     7
  6
Continuous
290
     0
370
    -3
390
F
  0
LAYER
  5
1547
330
2
100
AcDbSymbolTableRecord
100
AcDbLayerTableRecord
  2
DCC
 70
     0
 62
     4
  6
Continuous
370
    -3
390
F
  0
LAYER
  5
1548
330
2
100
AcDbSymbolTableRecord
100
AcDbLayerTableRecord
  2
BEDIENRAUM
 70
     0
 62
     2
  6
Continuous
370
    -3
390
F
  0
LAYER
  5
1549
330
2
100
AcDbSymbolTableRecord
100
AcDbLayerTableRecord
  2
INFO
 70
     0
 62
    -3
  6
Continuous
370
    -3
390
F
  0
ENDTAB
  0
TABLE
  2
STYLE
  5
3
330
0
100
AcDbSymbolTable
 70
     1
  0
STYLE
  5
11
330
3
100
AcDbSymbolTableRecord
100
AcDbTextStyleTableRecord
  2
Standard
 70
     0
 40
0.0
 41
1.0
 50
0.0
 71
     0
 42
0.2
  3
txt
  4

  0
ENDTAB
  0
TABLE
  2
VIEW
  5
6
330
0
100
AcDbSymbolTable
 70
     0
  0
ENDTAB
  0
TABLE
  2
UCS
  5
7
330
0
100
AcDbSymbolTable
 70
     0
  0
ENDTAB
  0
TABLE
  2
APPID
  5
9
330
0
100
AcDbSymbolTable
 70
     1
  0
APPID
  5
12
330
9
100
AcDbSymbolTableRecord
100
AcDbRegAppTableRecord
  2
ACAD
 70
     0
  0
ENDTAB
  0
TABLE
  2
DIMSTYLE
  5
A
330
0
100
AcDbSymbolTable
 70
     1
100
AcDbDimStyleTable
  0
DIMSTYLE
105
27
102
{ACAD_REACTORS
330
1434
330
15A6
330
15B3
330
15C0
330
15CD
330
15DA
330
15F2
330
160F
102
}
330
A
100
AcDbSymbolTableRecord
100
AcDbDimStyleTableRecord
  2
Standard
 70
     0
340
11
  0
ENDTAB
  0
TABLE
  2
BLOCK_RECORD
  5
1
330
0
100
AcDbSymbolTable
 70
    48
  0
BLOCK_RECORD
  5
1F
330
1
100
AcDbSymbolTableRecord
100
AcDbBlockTableRecord
  2
*Model_Space
340
22
  0
BLOCK_RECORD
  5
73
330
1
100
AcDbSymbolTableRecord
100
AcDbBlockTableRecord
  2
*Paper_Space
340
74
  0
BLOCK_RECORD
  5
1550
330
1
100
AcDbSymbolTableRecord
100
AcDbBlockTableRecord
  2
6
340
0
  0
BLOCK_RECORD
  5
1552
330
1
100
AcDbSymbolTableRecord
100
AcDbBlockTableRecord
  2
530
340
0
  0
BLOCK_RECORD
  5
1554
330
1
100
AcDbSymbolTableRecord
100
AcDbBlockTableRecord
  2
531
340
0
  0
BLOCK_RECORD
  5
1556
330
1
100
AcDbSymbolTableRecord
100
AcDbBlockTableRecord
  2
533
340
0
  0
BLOCK_RECORD
  5
1558
330
1
100
AcDbSymbolTableRecord
100
AcDbBlockTableRecord
  2
534
340
0
  0
BLOCK_RECORD
  5
155A
330
1
100
AcDbSymbolTableRecord
100
AcDbBlockTableRecord
  2
538
340
0
  0
BLOCK_RECORD
  5
155C
330
1
100
AcDbSymbolTableRecord
100
AcDbBlockTableRecord
  2
539
340
0
  0
BLOCK_RECORD
  5
155E
330
1
100
AcDbSymbolTableRecord
100
AcDbBlockTableRecord
  2
540
340
0
  0
BLOCK_RECORD
  5
1560
330
1
100
AcDbSymbolTableRecord
100
AcDbBlockTableRecord
  2
541
340
0
  0
BLOCK_RECORD
  5
1562
330
1
100
AcDbSymbolTableRecord
100
AcDbBlockTableRecord
  2
542
340
0
  0
BLOCK_RECORD
  5
1564
330
1
100
AcDbSymbolTableRecord
100
AcDbBlockTableRecord
  2
543
340
0
  0
BLOCK_RECORD
  5
1566
330
1
100
AcDbSymbolTableRecord
100
AcDbBlockTableRecord
  2
544
340
0
  0
BLOCK_RECORD
  5
1568
330
1
100
AcDbSymbolTableRecord
100
AcDbBlockTableRecord
  2
14
340
0
  0
BLOCK_RECORD
  5
156A
330
1
100
AcDbSymbolTableRecord
100
AcDbBlockTableRecord
  2
545
340
0
  0
BLOCK_RECORD
  5
156C
330
1
100
AcDbSymbolTableRecord
100
AcDbBlockTableRecord
  2
546
340
0
  0
BLOCK_RECORD
  5
156E
330
1
100
AcDbSymbolTableRecord
100
AcDbBlockTableRecord
  2
547
340
0
  0
BLOCK_RECORD
  5
1570
330
1
100
AcDbSymbolTableRecord
100
AcDbBlockTableRecord
  2
548
340
0
  0
BLOCK_RECORD
  5
1572
330
1
100
AcDbSymbolTableRecord
100
AcDbBlockTableRecord
  2
549
340
0
  0
BLOCK_RECORD
  5
1574
330
1
100
AcDbSymbolTableRecord
100
AcDbBlockTableRecord
  2
550
340
0
  0
BLOCK_RECORD
  5
1576
330
1
100
AcDbSymbolTableRecord
100
AcDbBlockTableRecord
  2
551
340
0
  0
BLOCK_RECORD
  5
1578
330
1
100
AcDbSymbolTableRecord
100
AcDbBlockTableRecord
  2
552
340
0
  0
BLOCK_RECORD
  5
157A
330
1
100
AcDbSymbolTableRecord
100
AcDbBlockTableRecord
  2
553
340
0
  0
BLOCK_RECORD
  5
157C
330
1
100
AcDbSymbolTableRecord
100
AcDbBlockTableRecord
  2
554
340
0
  0
BLOCK_RECORD
  5
157E
330
1
100
AcDbSymbolTableRecord
100
AcDbBlockTableRecord
  2
555
340
0
  0
BLOCK_RECORD
  5
1580
330
1
100
AcDbSymbolTableRecord
100
AcDbBlockTableRecord
  2
556
340
0
  0
BLOCK_RECORD
  5
1582
330
1
100
AcDbSymbolTableRecord
100
AcDbBlockTableRecord
  2
559
340
0
  0
BLOCK_RECORD
  5
1584
330
1
100
AcDbSymbolTableRecord
100
AcDbBlockTableRecord
  2
560
340
0
  0
BLOCK_RECORD
  5
1586
330
1
100
AcDbSymbolTableRecord
100
AcDbBlockTableRecord
  2
561
340
0
  0
BLOCK_RECORD
  5
1588
330
1
100
AcDbSymbolTableRecord
100
AcDbBlockTableRecord
  2
562
340
0
  0
BLOCK_RECORD
  5
158A
330
1
100
AcDbSymbolTableRecord
100
AcDbBlockTableRecord
  2
563
340
0
  0
BLOCK_RECORD
  5
158C
330
1
100
AcDbSymbolTableRecord
100
AcDbBlockTableRecord
  2
*D30
340
0
  0
BLOCK_RECORD
  5
158E
330
1
100
AcDbSymbolTableRecord
100
AcDbBlockTableRecord
  2
*D31
340
0
  0
BLOCK_RECORD
  5
1590
330
1
100
AcDbSymbolTableRecord
100
AcDbBlockTableRecord
  2
*D32
340
0
  0
BLOCK_RECORD
  5
1592
330
1
100
AcDbSymbolTableRecord
100
AcDbBlockTableRecord
  2
*D33
340
0
  0
BLOCK_RECORD
  5
1594
330
1
100
AcDbSymbolTableRecord
100
AcDbBlockTableRecord
  2
*D34
340
0
  0
BLOCK_RECORD
  5
1596
330
1
100
AcDbSymbolTableRecord
100
AcDbBlockTableRecord
  2
*D35
340
0
  0
BLOCK_RECORD
  5
1598
330
1
100
AcDbSymbolTableRecord
100
AcDbBlockTableRecord
  2
*D36
340
0
  0
BLOCK_RECORD
  5
159A
330
1
100
AcDbSymbolTableRecord
100
AcDbBlockTableRecord
  2
*D37
340
0
  0
BLOCK_RECORD
  5
159C
330
1
100
AcDbSymbolTableRecord
100
AcDbBlockTableRecord
  2
*D38
340
0
  0
BLOCK_RECORD
  5
159E
330
1
100
AcDbSymbolTableRecord
100
AcDbBlockTableRecord
  2
*X39
340
0
102
{BLKREFS
331
1432
102
}
  0
BLOCK_RECORD
  5
15B2
330
1
100
AcDbSymbolTableRecord
100
AcDbBlockTableRecord
  2
*D40
340
0
  0
BLOCK_RECORD
  5
15BF
330
1
100
AcDbSymbolTableRecord
100
AcDbBlockTableRecord
  2
*D41
340
0
  0
BLOCK_RECORD
  5
15CC
330
1
100
AcDbSymbolTableRecord
100
AcDbBlockTableRecord
  2
*D42
340
0
  0
BLOCK_RECORD
  5
15D9
330
1
100
AcDbSymbolTableRecord
100
AcDbBlockTableRecord
  2
*D43
340
0
  0
BLOCK_RECORD
  5
15E6
330
1
100
AcDbSymbolTableRecord
100
AcDbBlockTableRecord
  2
*D44
340
0
  0
BLOCK_RECORD
  5
15F1
330
1
100
AcDbSymbolTableRecord
100
AcDbBlockTableRecord
  2
*D45
340
0
  0
BLOCK_RECORD
  5
15FF
330
1
100
AcDbSymbolTableRecord
100
AcDbBlockTableRecord
  2
*D46
340
0
  0
BLOCK_RECORD
  5
161C
330
1
100
AcDbSymbolTableRecord
100
AcDbBlockTableRecord
  2
*D47
340
0
  0
ENDTAB
  0
ENDSEC
  0
SECTION
  2
BLOCKS
  0
BLOCK
  5
20
330
1F
100
AcDbEntity
  8
0
100
AcDbBlockBegin
  2
*Model_Space
 70
     0
 71
     0
 10
0.0
 20
0.0
 30
0.0
  3
*Model_Space
  1

  0
ENDBLK
  5
21
330
1F
100
AcDbEntity
  8
0
100
AcDbBlockEnd
  0
BLOCK
  5
75
330
73
100
AcDbEntity
 67
     1
  8
0
100
AcDbBlockBegin
  2
*Paper_Space
 70
     0
 71
     0
 10
0.0
 20
0.0
 30
0.0
  3
*Paper_Space
  1

  0
ENDBLK
  5
76
330
73
100
AcDbEntity
 67
     1
  8
0
100
AcDbBlockEnd
  0
BLOCK
  5
17C8
330
1550
100
AcDbEntity
  8
0
100
AcDbBlockBegin
  2
6
 70
     0
 71
     0
 10
0.0
 20
0.0
 30
0.0
  3
6
  1

  0
ENDBLK
  5
17C9
330
1550
100
AcDbEntity
  8
0
100
AcDbBlockEnd
  0
BLOCK
  5
17CA
330
1552
100
AcDbEntity
  8
0
100
AcDbBlockBegin
  2
530
 70
     0
 71
     0
 10
0.0
 20
0.0
 30
0.0
  3
530
  1

  0
ENDBLK
  5
17CB
330
1552
100
AcDbEntity
  8
0
100
AcDbBlockEnd
  0
BLOCK
  5
17CC
330
1554
100
AcDbEntity
  8
0
100
AcDbBlockBegin
  2
531
 70
     0
 71
     0
 10
0.0
 20
0.0
 30
0.0
  3
531
  1

  0
ENDBLK
  5
17CD
330
1554
100
AcDbEntity
  8
0
100
AcDbBlockEnd
  0
BLOCK
  5
17CE
330
1556
100
AcDbEntity
  8
0
100
AcDbBlockBegin
  2
533
 70
     0
 71
     0
 10
0.0
 20
0.0
 30
0.0
  3
533
  1

  0
ENDBLK
  5
17CF
330
1556
100
AcDbEntity
  8
0
100
AcDbBlockEnd
  0
BLOCK
  5
17D0
330
1558
100
AcDbEntity
  8
0
100
AcDbBlockBegin
  2
534
 70
     0
 71
     0
 10
0.0
 20
0.0
 30
0.0
  3
534
  1

  0
ENDBLK
  5
17D1
330
1558
100
AcDbEntity
  8
0
100
AcDbBlockEnd
  0
BLOCK
  5
17D2
330
155A
100
AcDbEntity
  8
0
100
AcDbBlockBegin
  2
538
 70
     0
 71
     0
 10
0.0
 20
0.0
 30
0.0
  3
538
  1

  0
ENDBLK
  5
17D3
330
155A
100
AcDbEntity
  8
0
100
AcDbBlockEnd
  0
BLOCK
  5
17D4
330
155C
100
AcDbEntity
  8
0
100
AcDbBlockBegin
  2
539
 70
     0
 71
     0
 10
0.0
 20
0.0
 30
0.0
  3
539
  1

  0
ENDBLK
  5
17D5
330
155C
100
AcDbEntity
  8
0
100
AcDbBlockEnd
  0
BLOCK
  5
17D6
330
155E
100
AcDbEntity
  8
0
100
AcDbBlockBegin
  2
540
 70
     0
 71
     0
 10
0.0
 20
0.0
 30
0.0
  3
540
  1

  0
ENDBLK
  5
17D7
330
155E
100
AcDbEntity
  8
0
100
AcDbBlockEnd
  0
BLOCK
  5
17D8
330
1560
100
AcDbEntity
  8
0
100
AcDbBlockBegin
  2
541
 70
     0
 71
     0
 10
0.0
 20
0.0
 30
0.0
  3
541
  1

  0
ENDBLK
  5
17D9
330
1560
100
AcDbEntity
  8
0
100
AcDbBlockEnd
  0
BLOCK
  5
17DA
330
1562
100
AcDbEntity
  8
0
100
AcDbBlockBegin
  2
542
 70
     0
 71
     0
 10
0.0
 20
0.0
 30
0.0
  3
542
  1

  0
ENDBLK
  5
17DB
330
1562
100
AcDbEntity
  8
0
100
AcDbBlockEnd
  0
BLOCK
  5
17DC
330
1564
100
AcDbEntity
  8
0
100
AcDbBlockBegin
  2
543
 70
     0
 71
     0
 10
0.0
 20
0.0
 30
0.0
  3
543
  1

  0
ENDBLK
  5
17DD
330
1564
100
AcDbEntity
  8
0
100
AcDbBlockEnd
  0
BLOCK
  5
17DE
330
1566
100
AcDbEntity
  8
0
100
AcDbBlockBegin
  2
544
 70
     0
 71
     0
 10
0.0
 20
0.0
 30
0.0
  3
544
  1

  0
ENDBLK
  5
17DF
330
1566
100
AcDbEntity
  8
0
100
AcDbBlockEnd
  0
BLOCK
  5
17E0
330
1568
100
AcDbEntity
  8
0
100
AcDbBlockBegin
  2
14
 70
     0
 71
     0
 10
0.0
 20
0.0
 30
0.0
  3
14
  1

  0
ENDBLK
  5
17E1
330
1568
100
AcDbEntity
  8
0
100
AcDbBlockEnd
  0
BLOCK
  5
17E2
330
156A
100
AcDbEntity
  8
0
100
AcDbBlockBegin
  2
545
 70
     0
 71
     0
 10
0.0
 20
0.0
 30
0.0
  3
545
  1

  0
ENDBLK
  5
17E3
330
156A
100
AcDbEntity
  8
0
100
AcDbBlockEnd
  0
BLOCK
  5
17E4
330
156C
100
AcDbEntity
  8
0
100
AcDbBlockBegin
  2
546
 70
     0
 71
     0
 10
0.0
 20
0.0
 30
0.0
  3
546
  1

  0
ENDBLK
  5
17E5
330
156C
100
AcDbEntity
  8
0
100
AcDbBlockEnd
  0
BLOCK
  5
17E6
330
156E
100
AcDbEntity
  8
0
100
AcDbBlockBegin
  2
547
 70
     0
 71
     0
 10
0.0
 20
0.0
 30
0.0
  3
547
  1

  0
ENDBLK
  5
17E7
330
156E
100
AcDbEntity
  8
0
100
AcDbBlockEnd
  0
BLOCK
  5
17E8
330
1570
100
AcDbEntity
  8
0
100
AcDbBlockBegin
  2
548
 70
     0
 71
     0
 10
0.0
 20
0.0
 30
0.0
  3
548
  1

  0
ENDBLK
  5
17E9
330
1570
100
AcDbEntity
  8
0
100
AcDbBlockEnd
  0
BLOCK
  5
17EA
330
1572
100
AcDbEntity
  8
0
100
AcDbBlockBegin
  2
549
 70
     0
 71
     0
 10
0.0
 20
0.0
 30
0.0
  3
549
  1

  0
ENDBLK
  5
17EB
330
1572
100
AcDbEntity
  8
0
100
AcDbBlockEnd
  0
BLOCK
  5
17EC
330
1574
100
AcDbEntity
  8
0
100
AcDbBlockBegin
  2
550
 70
     0
 71
     0
 10
0.0
 20
0.0
 30
0.0
  3
550
  1

  0
ENDBLK
  5
17ED
330
1574
100
AcDbEntity
  8
0
100
AcDbBlockEnd
  0
BLOCK
  5
17EE
330
1576
100
AcDbEntity
  8
0
100
AcDbBlockBegin
  2
551
 70
     0
 71
     0
 10
0.0
 20
0.0
 30
0.0
  3
551
  1

  0
ENDBLK
  5
17EF
330
1576
100
AcDbEntity
  8
0
100
AcDbBlockEnd
  0
BLOCK
  5
17F0
330
1578
100
AcDbEntity
  8
0
100
AcDbBlockBegin
  2
552
 70
     0
 71
     0
 10
0.0
 20
0.0
 30
0.0
  3
552
  1

  0
ENDBLK
  5
17F1
330
1578
100
AcDbEntity
  8
0
100
AcDbBlockEnd
  0
BLOCK
  5
17F2
330
157A
100
AcDbEntity
  8
0
100
AcDbBlockBegin
  2
553
 70
     0
 71
     0
 10
0.0
 20
0.0
 30
0.0
  3
553
  1

  0
ENDBLK
  5
17F3
330
157A
100
AcDbEntity
  8
0
100
AcDbBlockEnd
  0
BLOCK
  5
17F4
330
157C
100
AcDbEntity
  8
0
100
AcDbBlockBegin
  2
554
 70
     0
 71
     0
 10
0.0
 20
0.0
 30
0.0
  3
554
  1

  0
ENDBLK
  5
17F5
330
157C
100
AcDbEntity
  8
0
100
AcDbBlockEnd
  0
BLOCK
  5
17F6
330
157E
100
AcDbEntity
  8
0
100
AcDbBlockBegin
  2
555
 70
     0
 71
     0
 10
0.0
 20
0.0
 30
0.0
  3
555
  1

  0
ENDBLK
  5
17F7
330
157E
100
AcDbEntity
  8
0
100
AcDbBlockEnd
  0
BLOCK
  5
17F8
330
1580
100
AcDbEntity
  8
0
100
AcDbBlockBegin
  2
556
 70
     0
 71
     0
 10
0.0
 20
0.0
 30
0.0
  3
556
  1

  0
ENDBLK
  5
17F9
330
1580
100
AcDbEntity
  8
0
100
AcDbBlockEnd
  0
BLOCK
  5
17FA
330
1582
100
AcDbEntity
  8
0
100
AcDbBlockBegin
  2
559
 70
     0
 71
     0
 10
0.0
 20
0.0
 30
0.0
  3
559
  1

  0
ENDBLK
  5
17FB
330
1582
100
AcDbEntity
  8
0
100
AcDbBlockEnd
  0
BLOCK
  5
17FC
330
1584
100
AcDbEntity
  8
0
100
AcDbBlockBegin
  2
560
 70
     0
 71
     0
 10
0.0
 20
0.0
 30
0.0
  3
560
  1

  0
ENDBLK
  5
17FD
330
1584
100
AcDbEntity
  8
0
100
AcDbBlockEnd
  0
BLOCK
  5
17FE
330
1586
100
AcDbEntity
  8
0
100
AcDbBlockBegin
  2
561
 70
     0
 71
     0
 10
0.0
 20
0.0
 30
0.0
  3
561
  1

  0
ENDBLK
  5
17FF
330
1586
100
AcDbEntity
  8
0
100
AcDbBlockEnd
  0
BLOCK
  5
1800
330
1588
100
AcDbEntity
  8
0
100
AcDbBlockBegin
  2
562
 70
     0
 71
     0
 10
0.0
 20
0.0
 30
0.0
  3
562
  1

  0
ENDBLK
  5
1801
330
1588
100
AcDbEntity
  8
0
100
AcDbBlockEnd
  0
BLOCK
  5
1802
330
158A
100
AcDbEntity
  8
0
100
AcDbBlockBegin
  2
563
 70
     0
 71
     0
 10
0.0
 20
0.0
 30
0.0
  3
563
  1

  0
ENDBLK
  5
1803
330
158A
100
AcDbEntity
  8
0
100
AcDbBlockEnd
  0
BLOCK
  5
1804
330
158C
100
AcDbEntity
  8
0
100
AcDbBlockBegin
  2
*D30
 70
     1
 71
     0
 10
0.0
 20
0.0
 30
0.0
  3
*D30
  1

  0
POINT
  5
122E
330
158C
100
AcDbEntity
  8
DEFPOINTS
  6
ByBlock
 62
     0
100
AcDbPoint
 10
3797.497178758777
 20
-539.8234115293029
 30
0.0
  0
POINT
  5
122F
330
158C
100
AcDbEntity
  8
DEFPOINTS
  6
ByBlock
 62
     0
100
AcDbPoint
 10
1569.006597087411
 20
-688.1620811044111
 30
0.0
  0
LINE
  5
1230
330
158C
100
AcDbEntity
  8
0
  6
ByBlock
 62
     0
100
AcDbLine
 10
3797.497178758777
 20
-539.7609115293029
 30
0.0
 11
3797.497178758777
 21
-441.82
 31
0.0
  0
LINE
  5
1231
330
158C
100
AcDbEntity
  8
0
  6
ByBlock
 62
     0
100
AcDbLine
 10
1569.006597087411
 20
-688.0995811044111
 30
0.0
 11
1569.006597087411
 21
-441.82
 31
0.0
  0
LINE
  5
1232
330
158C
100
AcDbEntity
  8
0
  6
ByBlock
 62
     0
100
AcDbLine
 10
3797.317178758778
 20
-442.0
 30
0.0
 11
2684.046887923094
 21
-442.0
 31
0.0
  0
LINE
  5
1233
330
158C
100
AcDbEntity
  8
0
  6
ByBlock
 62
     0
100
AcDbLine
 10
1569.186597087411
 20
-442.0
 30
0.0
 11
2682.456887923095
 21
-442.0
 31
0.0
  0
SOLID
  5
1234
330
158C
100
AcDbEntity
  8
0
  6
ByBlock
 62
     0
100
AcDbTrace
 10
3797.497178758777
 20
-442.0
 30
0.0
 11
3797.317178758778
 21
-441.97
 31
0.0
 12
3797.317178758778
 22
-442.03
 32
0.0
 13
3797.317178758778
 23
-442.03
 33
0.0
  0
SOLID
  5
1235
330
158C
100
AcDbEntity
  8
0
  6
ByBlock
 62
     0
100
AcDbTrace
 10
1569.006597087411
 20
-442.0
 30
0.0
 11
1569.186597087411
 21
-441.97
 31
0.0
 12
1569.186597087411
 22
-442.03
 32
0.0
 13
1569.186597087411
 23
-442.03
 33
0.0
  0
TEXT
  5
1236
330
158C
100
AcDbEntity
  8
0
  6
ByBlock
 62
     0
100
AcDbText
 10
2682.546887923094
 20
-442.09
 30
0.0
 40
0.18
  1
2228.4906
100
AcDbText
  0
ENDBLK
  5
1805
330
158C
100
AcDbEntity
  8
0
100
AcDbBlockEnd
  0
BLOCK
  5
1806
330
158E
100
AcDbEntity
  8
0
100
AcDbBlockBegin
  2
*D31
 70
     1
 71
     0
 10
0.0
 20
0.0
 30
0.0
  3
*D31
  1

  0
POINT
  5
123B
330
158E
100
AcDbEntity
  8
DEFPOINTS
  6
ByBlock
 62
     0
100
AcDbPoint
 10
3797.497178758777
 20
-939.8234115293029
 30
0.0
  0
POINT
  5
123C
330
158E
100
AcDbEntity
  8
DEFPOINTS
  6
ByBlock
 62
     0
100
AcDbPoint
 10
3701.861252333885
 20
-1035.459337954195
 30
0.0
  0
LINE
  5
123D
330
158E
100
AcDbEntity
  8
0
  6
ByBlock
 62
     0
100
AcDbLine
 10
3797.541372932601
 20
-939.8676057031271
 30
0.0
 11
3847.943831812448
 21
-990.2700645829739
 31
0.0
  0
LINE
  5
123E
330
158E
100
AcDbEntity
  8
0
  6
ByBlock
 62
     0
100
AcDbLine
 10
3701.905446507709
 20
-1035.50353212802
 30
0.0
 11
3752.307905387556
 21
-1085.905991007867
 31
0.0
  0
LINE
  5
123F
330
158E
100
AcDbEntity
  8
0
  6
ByBlock
 62
     0
100
AcDbLine
 10
3847.689273371222
 20
-990.2700645829739
 30
0.0
 11
3800.486493058408
 21
-1037.472844895788
 31
0.0
  0
LINE
  5
1240
330
158E
100
AcDbEntity
  8
0
  6
ByBlock
 62
     0
100
AcDbLine
 10
3752.307905387556
 20
-1085.651432566639
 30
0.0
 11
3799.51068570037
 21
-1038.448652253825
 31
0.0
  0
SOLID
  5
1241
330
158E
100
AcDbEntity
  8
0
  6
ByBlock
 62
     0
100
AcDbTrace
 10
3847.816552591835
 20
-990.1427853623603
 30
0.0
 11
3847.668060167786
 21
-990.2488513795383
 31
0.0
 12
3847.710486574657
 22
-990.2912777864095
 32
0.0
 13
3847.710486574657
 23
-990.2912777864095
 33
0.0
  0
SOLID
  5
1242
330
158E
100
AcDbEntity
  8
0
  6
ByBlock
 62
     0
100
AcDbTrace
 10
3752.180626166943
 20
-1085.778711787253
 30
0.0
 11
3752.286692184121
 21
-1085.630219363204
 31
0.0
 12
3752.329118590992
 22
-1085.672645770075
 32
0.0
 13
3752.329118590992
 23
-1085.672645770075
 33
0.0
  0
TEXT
  5
1243
330
158E
100
AcDbEntity
  8
0
  6
ByBlock
 62
     0
100
AcDbText
 10
3799.398589379389
 20
-1038.050748574807
 30
0.0
 40
0.18
  1
135.2496
100
AcDbText
  0
ENDBLK
  5
1807
330
158E
100
AcDbEntity
  8
0
100
AcDbBlockEnd
  0
BLOCK
  5
1808
330
1590
100
AcDbEntity
  8
0
100
AcDbBlockBegin
  2
*D32
 70
     1
 71
     0
 10
0.0
 20
0.0
 30
0.0
  3
*D32
  1

  0
POINT
  5
1248
330
1590
100
AcDbEntity
  8
DEFPOINTS
  6
ByBlock
 62
     0
100
AcDbPoint
 10
3797.497178758777
 20
-939.8234115293029
 30
0.0
  0
POINT
  5
1249
330
1590
100
AcDbEntity
  8
DEFPOINTS
  6
ByBlock
 62
     0
100
AcDbPoint
 10
3797.497178758777
 20
-539.8234115293029
 30
0.0
  0
LINE
  5
124A
330
1590
100
AcDbEntity
  8
0
  6
ByBlock
 62
     0
100
AcDbLine
 10
3797.559678758777
 20
-939.8234115293029
 30
0.0
 11
3940.68
 21
-939.8234115293029
 31
0.0
  0
LINE
  5
124B
330
1590
100
AcDbEntity
  8
0
  6
ByBlock
 62
     0
100
AcDbLine
 10
3797.559678758777
 20
-539.8234115293029
 30
0.0
 11
3940.68
 21
-539.8234115293029
 31
0.0
  0
LINE
  5
124C
330
1590
100
AcDbEntity
  8
0
  6
ByBlock
 62
     0
100
AcDbLine
 10
3940.5
 20
-939.643411529303
 30
0.0
 11
3940.5
 21
-740.4534115293029
 31
0.0
  0
LINE
  5
124D
330
1590
100
AcDbEntity
  8
0
  6
ByBlock
 62
     0
100
AcDbLine
 10
3940.5
 20
-540.0034115293029
 30
0.0
 11
3940.5
 21
-739.1934115293029
 31
0.0
  0
SOLID
  5
124E
330
1590
100
AcDbEntity
  8
0
  6
ByBlock
 62
     0
100
AcDbTrace
 10
3940.5
 20
-939.8234115293029
 30
0.0
 11
3940.53
 21
-939.643411529303
 31
0.0
 12
3940.47
 22
-939.643411529303
 32
0.0
 13
3940.47
 23
-939.643411529303
 33
0.0
  0
SOLID
  5
124F
330
1590
100
AcDbEntity
  8
0
  6
ByBlock
 62
     0
100
AcDbTrace
 10
3940.5
 20
-539.8234115293029
 30
0.0
 11
3940.53
 21
-540.0034115293029
 31
0.0
 12
3940.47
 22
-540.0034115293029
 32
0.0
 13
3940.47
 23
-540.0034115293029
 33
0.0
  0
TEXT
  5
1250
330
1590
100
AcDbEntity
  8
0
  6
ByBlock
 62
     0
100
AcDbText
 10
3939.96
 20
-739.9134115293028
 30
0.0
 40
0.18
  1
400.0000
100
AcDbText
  0
ENDBLK
  5
1809
330
1590
100
AcDbEntity
  8
0
100
AcDbBlockEnd
  0
BLOCK
  5
180A
330
1592
100
AcDbEntity
  8
0
100
AcDbBlockBegin
  2
*D33
 70
     1
 71
     0
 10
0.0
 20
0.0
 30
0.0
  3
*D33
  1

  0
POINT
  5
1255
330
1592
100
AcDbEntity
  8
DEFPOINTS
  6
ByBlock
 62
     0
100
AcDbPoint
 10
3701.905446507709
 20
-1035.50353212802
 30
0.0
  0
POINT
  5
1256
330
1592
100
AcDbEntity
  8
DEFPOINTS
  6
ByBlock
 62
     0
100
AcDbPoint
 10
1767.462172430145
 20
-1035.459337954195
 30
0.0
  0
LINE
  5
1257
330
1592
100
AcDbEntity
  8
0
  6
ByBlock
 62
     0
100
AcDbLine
 10
3701.905446507709
 20
-1035.56603212802
 30
0.0
 11
3701.905446507709
 21
-1131.18
 31
0.0
  0
LINE
  5
1258
330
1592
100
AcDbEntity
  8
0
  6
ByBlock
 62
     0
100
AcDbLine
 10
1767.462172430145
 20
-1035.521837954195
 30
0.0
 11
1767.462172430145
 21
-1131.18
 31
0.0
  0
LINE
  5
1259
330
1592
100
AcDbEntity
  8
0
  6
ByBlock
 62
     0
100
AcDbLine
 10
3701.725446507709
 20
-1131.0
 30
0.0
 11
2735.463809468927
 21
-1131.0
 31
0.0
  0
LINE
  5
125A
330
1592
100
AcDbEntity
  8
0
  6
ByBlock
 62
     0
100
AcDbLine
 10
1767.642172430145
 20
-1131.0
 30
0.0
 11
2733.903809468927
 21
-1131.0
 31
0.0
  0
SOLID
  5
125B
330
1592
100
AcDbEntity
  8
0
  6
ByBlock
 62
     0
100
AcDbTrace
 10
3701.905446507709
 20
-1131.0
 30
0.0
 11
3701.725446507709
 21
-1130.97
 31
0.0
 12
3701.725446507709
 22
-1131.03
 32
0.0
 13
3701.725446507709
 23
-1131.03
 33
0.0
  0
SOLID
  5
125C
330
1592
100
AcDbEntity
  8
0
  6
ByBlock
 62
     0
100
AcDbTrace
 10
1767.462172430145
 20
-1131.0
 30
0.0
 11
1767.642172430145
 21
-1130.97
 31
0.0
 12
1767.642172430145
 22
-1131.03
 32
0.0
 13
1767.642172430145
 23
-1131.03
 33
0.0
  0
TEXT
  5
125D
330
1592
100
AcDbEntity
  8
0
  6
ByBlock
 62
     0
100
AcDbText
 10
2733.993809468927
 20
-1131.09
 30
0.0
 40
0.18
  1
1934.4433
100
AcDbText
  0
ENDBLK
  5
180B
330
1592
100
AcDbEntity
  8
0
100
AcDbBlockEnd
  0
BLOCK
  5
180C
330
1594
100
AcDbEntity
  8
0
100
AcDbBlockBegin
  2
*D34
 70
     1
 71
     0
 10
0.0
 20
0.0
 30
0.0
  3
*D34
  1

  0
POINT
  5
1262
330
1594
100
AcDbEntity
  8
DEFPOINTS
  6
ByBlock
 62
     0
100
AcDbPoint
 10
3797.559678758777
 20
-939.8234115293029
 30
0.0
  0
POINT
  5
1263
330
1594
100
AcDbEntity
  8
DEFPOINTS
  6
ByBlock
 62
     0
100
AcDbPoint
 10
1569.006597087411
 20
-688.1620811044111
 30
0.0
  0
LINE
  5
1264
330
1594
100
AcDbEntity
  8
0
  6
ByBlock
 62
     0
100
AcDbLine
 10
3797.55266546691
 20
-939.8855167926643
 30
0.0
 11
3735.450910703828
 21
-1489.819257986851
 31
0.0
  0
LINE
  5
1265
330
1594
100
AcDbEntity
  8
0
  6
ByBlock
 62
     0
100
AcDbLine
 10
1568.999583795544
 20
-688.2241863677724
 30
0.0
 11
1506.897829032461
 21
-1238.157927561959
 31
0.0
  0
LINE
  5
1266
330
1594
100
AcDbEntity
  8
0
  6
ByBlock
 62
     0
100
AcDbLine
 10
3735.292245825925
 20
-1489.620196547792
 30
0.0
 11
2621.969641835472
 21
-1363.89725549843
 31
0.0
  0
LINE
  5
1267
330
1594
100
AcDbEntity
  8
0
  6
ByBlock
 62
     0
100
AcDbLine
 10
1507.09689047152
 20
-1237.999262684057
 30
0.0
 11
2620.419494461973
 21
-1363.722203733418
 31
0.0
  0
SOLID
  5
1268
330
1594
100
AcDbEntity
  8
0
  6
ByBlock
 62
     0
100
AcDbTrace
 10
3735.471108984405
 20
-1489.640394828371
 30
0.0
 11
3735.295612206021
 21
-1489.590386021379
 31
0.0
 12
3735.288879445829
 22
-1489.650007074206
 32
0.0
 13
3735.288879445829
 23
-1489.650007074206
 33
0.0
  0
SOLID
  5
1269
330
1594
100
AcDbEntity
  8
0
  6
ByBlock
 62
     0
100
AcDbTrace
 10
1506.918027313039
 20
-1237.979064403479
 30
0.0
 11
1507.100256851616
 21
-1237.969452157643
 31
0.0
 12
1507.093524091423
 22
-1238.02907321047
 32
0.0
 13
1507.093524091423
 23
-1238.02907321047
 33
0.0
  0
TEXT
  5
126A
330
1594
100
AcDbEntity
  8
0
  6
ByBlock
 62
     0
100
AcDbText
 10
2620.504568148722
 20
-1363.899729615925
 30
0.0
 40
0.18
  1
2242.7176
100
AcDbText
  0
ENDBLK
  5
180D
330
1594
100
AcDbEntity
  8
0
100
AcDbBlockEnd
  0
BLOCK
  5
180E
330
1596
100
AcDbEntity
  8
0
100
AcDbBlockBegin
  2
*D35
 70
     1
 71
     0
 10
0.0
 20
0.0
 30
0.0
  3
*D35
  1

  0
TEXT
  5
1271
330
1596
100
AcDbEntity
  8
0
  6
ByBlock
 62
     0
100
AcDbText
 10
1931.734939778115
 20
-1130.99368970486
 30
0.0
 40
0.18
  1
60°
100
AcDbText
  0
POINT
  5
1272
330
1596
100
AcDbEntity
  8
DEFPOINTS
  6
ByBlock
 62
     0
100
AcDbPoint
 10
1767.462172430145
 20
-1035.459337954195
 30
0.0
  0
POINT
  5
1273
330
1596
100
AcDbEntity
  8
DEFPOINTS
  6
ByBlock
 62
     0
100
AcDbPoint
 10
1767.462172430145
 20
-1035.459337954195
 30
0.0
  0
POINT
  5
1274
330
1596
100
AcDbEntity
  8
DEFPOINTS
  6
ByBlock
 62
     0
100
AcDbPoint
 10
3701.861252333885
 20
-1035.459337954195
 30
0.0
  0
POINT
  5
1275
330
1596
100
AcDbEntity
  8
DEFPOINTS
  6
ByBlock
 62
     0
100
AcDbPoint
 10
1668.234384758778
 20
-861.8107095293029
 30
0.0
  0
SOLID
  5
1276
330
1596
100
AcDbEntity
  8
0
  6
ByBlock
 62
     0
100
AcDbTrace
 10
1861.805924613358
 20
-1200.560904274818
 30
0.0
 11
1861.947269599188
 21
-1200.44548506073
 31
0.0
 12
1861.977062588307
 22
-1200.497565554193
 32
0.0
 13
1861.977062588307
 23
-1200.497565554193
 33
0.0
  0
SOLID
  5
1277
330
1596
100
AcDbEntity
  8
0
  6
ByBlock
 62
     0
100
AcDbTrace
 10
1957.618084190812
 20
-1035.459337954195
 30
0.0
 11
1957.647998994202
 21
-1035.639352132909
 31
0.0
 12
1957.587999000923
 22
-1035.639323735159
 32
0.0
 13
1957.587999000923
 23
-1035.639323735159
 33
0.0
  0
LINE
  5
1278
330
1596
100
AcDbEntity
  8
0
  6
ByBlock
 62
     0
100
AcDbLine
 10
1767.493181113792
 20
-1035.513603150578
 30
0.0
 11
1861.895229622262
 21
-1200.717188040401
 31
0.0
  0
ARC
  5
1279
330
1596
100
AcDbEntity
  8
0
  6
ByBlock
 62
     0
100
AcDbCircle
 10
1767.462172430145
 20
-1035.459337954195
 30
0.0
 40
190.1559117606673
100
AcDbArc
 50
299.7991170059554
 51
329.8097139529291
  0
ARC
  5
127A
330
1596
100
AcDbEntity
  8
0
  6
ByBlock
 62
     0
100
AcDbCircle
 10
1767.462172430145
 20
-1035.459337954195
 30
0.0
 40
190.1559117606673
100
AcDbArc
 50
329.9351275171508
 51
359.9457642909867
  0
ENDBLK
  5
180F
330
1596
100
AcDbEntity
  8
0
100
AcDbBlockEnd
  0
BLOCK
  5
1810
330
1598
100
AcDbEntity
  8
0
100
AcDbBlockBegin
  2
*D36
 70
     1
 71
     0
 10
0.0
 20
0.0
 30
0.0
  3
*D36
  1

  0
TEXT
  5
127E
330
1598
100
AcDbEntity
  8
0
  6
ByBlock
 62
     0
100
AcDbText
 10
1931.734939778115
 20
-1130.99368970486
 30
0.0
 40
0.18
  1
60°
100
AcDbText
  0
POINT
  5
127F
330
1598
100
AcDbEntity
  8
DEFPOINTS
  6
ByBlock
 62
     0
100
AcDbPoint
 10
1767.462172430145
 20
-1035.459337954195
 30
0.0
  0
POINT
  5
1280
330
1598
100
AcDbEntity
  8
DEFPOINTS
  6
ByBlock
 62
     0
100
AcDbPoint
 10
1767.462172430145
 20
-1035.459337954195
 30
0.0
  0
POINT
  5
1281
330
1598
100
AcDbEntity
  8
DEFPOINTS
  6
ByBlock
 62
     0
100
AcDbPoint
 10
3701.861252333885
 20
-1035.459337954195
 30
0.0
  0
POINT
  5
1282
330
1598
100
AcDbEntity
  8
DEFPOINTS
  6
ByBlock
 62
     0
100
AcDbPoint
 10
1668.234384758778
 20
-861.8107095293029
 30
0.0
  0
SOLID
  5
1283
330
1598
100
AcDbEntity
  8
0
  6
ByBlock
 62
     0
100
AcDbTrace
 10
1861.805924613358
 20
-1200.560904274818
 30
0.0
 11
1861.947269599188
 21
-1200.44548506073
 31
0.0
 12
1861.977062588307
 22
-1200.497565554193
 32
0.0
 13
1861.977062588307
 23
-1200.497565554193
 33
0.0
  0
SOLID
  5
1284
330
1598
100
AcDbEntity
  8
0
  6
ByBlock
 62
     0
100
AcDbTrace
 10
1957.618084190812
 20
-1035.459337954195
 30
0.0
 11
1957.647998994202
 21
-1035.639352132909
 31
0.0
 12
1957.587999000923
 22
-1035.639323735159
 32
0.0
 13
1957.587999000923
 23
-1035.639323735159
 33
0.0
  0
LINE
  5
1285
330
1598
100
AcDbEntity
  8
0
  6
ByBlock
 62
     0
100
AcDbLine
 10
1767.493181113792
 20
-1035.513603150578
 30
0.0
 11
1861.895229622262
 21
-1200.717188040401
 31
0.0
  0
ARC
  5
1286
330
1598
100
AcDbEntity
  8
0
  6
ByBlock
 62
     0
100
AcDbCircle
 10
1767.462172430145
 20
-1035.459337954195
 30
0.0
 40
190.1559117606673
100
AcDbArc
 50
299.7991170059554
 51
329.8097139529291
  0
ARC
  5
1287
330
1598
100
AcDbEntity
  8
0
  6
ByBlock
 62
     0
100
AcDbCircle
 10
1767.462172430145
 20
-1035.459337954195
 30
0.0
 40
190.1559117606673
100
AcDbArc
 50
329.9351275171508
 51
359.9457642909867
  0
ENDBLK
  5
1811
330
1598
100
AcDbEntity
  8
0
100
AcDbBlockEnd
  0
BLOCK
  5
1812
330
159A
100
AcDbEntity
  8
0
100
AcDbBlockBegin
  2
*D37
 70
     1
 71
     0
 10
0.0
 20
0.0
 30
0.0
  3
*D37
  1

  0
TEXT
  5
128C
330
159A
100
AcDbEntity
  8
0
  6
ByBlock
 62
     0
100
AcDbText
 10
1977.763510111506
 20
-1180.075598385642
 30
0.0
 40
20.0
  1
60°
100
AcDbText
  0
POINT
  5
128D
330
159A
100
AcDbEntity
  8
DEFPOINTS
  6
ByBlock
 62
     0
100
AcDbPoint
 10
1767.462172430145
 20
-1035.459337954195
 30
0.0
  0
POINT
  5
128E
330
159A
100
AcDbEntity
  8
DEFPOINTS
  6
ByBlock
 62
     0
100
AcDbPoint
 10
1767.462172430145
 20
-1035.459337954195
 30
0.0
  0
POINT
  5
128F
330
159A
100
AcDbEntity
  8
DEFPOINTS
  6
ByBlock
 62
     0
100
AcDbPoint
 10
3701.861252333885
 20
-1035.459337954195
 30
0.0
  0
POINT
  5
1290
330
159A
100
AcDbEntity
  8
DEFPOINTS
  6
ByBlock
 62
     0
100
AcDbPoint
 10
1668.234384758778
 20
-861.8107095293029
 30
0.0
  0
SOLID
  5
1291
330
159A
100
AcDbEntity
  8
0
  6
ByBlock
 62
     0
100
AcDbTrace
 10
1900.526129395904
 20
-1268.321262644274
 30
0.0
 11
1900.6674902764
 21
-1268.205862897891
 31
0.0
 12
1900.697276092498
 22
-1268.257947494073
 32
0.0
 13
1900.697276092498
 23
-1268.257947494073
 33
0.0
  0
SOLID
  5
1292
330
159A
100
AcDbEntity
  8
0
  6
ByBlock
 62
     0
100
AcDbTrace
 10
2035.66115194676
 20
-1035.459337954195
 30
0.0
 11
2035.691091542156
 21
-1035.639348011212
 31
0.0
 12
2035.631091545534
 22
-1035.639327876908
 32
0.0
 13
2035.631091545534
 23
-1035.639327876908
 33
0.0
  0
LINE
  5
1293
330
159A
100
AcDbEntity
  8
0
  6
ByBlock
 62
     0
100
AcDbLine
 10
1767.493181113792
 20
-1035.513603150578
 30
0.0
 11
1900.615434404808
 21
-1268.477546409857
 31
0.0
  0
ARC
  5
1294
330
159A
100
AcDbEntity
  8
0
  6
ByBlock
 62
     0
100
AcDbCircle
 10
1767.462172430145
 20
-1035.459337954195
 30
0.0
 40
268.1989795166151
100
AcDbArc
 50
299.783334987275
 51
327.3471159544466
  0
ARC
  5
1295
330
159A
100
AcDbEntity
  8
0
  6
ByBlock
 62
     0
100
AcDbCircle
 10
1767.462172430145
 20
-1035.459337954195
 30
0.0
 40
268.1989795166151
100
AcDbArc
 50
332.3347157465398
 51
359.9615463096671
  0
ENDBLK
  5
1813
330
159A
100
AcDbEntity
  8
0
100
AcDbBlockEnd
  0
BLOCK
  5
1814
330
159C
100
AcDbEntity
  8
0
100
AcDbBlockBegin
  2
*D38
 70
     1
 71
     0
 10
0.0
 20
0.0
 30
0.0
  3
*D38
  1

  0
POINT
  5
1436
330
159C
100
AcDbEntity
  8
DEFPOINTS
  6
ByBlock
 62
     0
100
AcDbPoint
 10
2476.353052417114
 20
76.04763296463204
 30
0.0
  0
POINT
  5
1437
330
159C
100
AcDbEntity
  8
DEFPOINTS
  6
ByBlock
 62
     0
100
AcDbPoint
 10
446.318046088481
 20
-19.58829346025982
 30
0.0
  0
LINE
  5
1438
330
159C
100
AcDbEntity
  8
0
  6
ByBlock
 62
     0
100
AcDbLine
 10
2476.353052417114
 20
75.98513296463204
 30
0.0
 11
2476.353052417114
 21
-126.8052301197556
 31
0.0
  0
LINE
  5
1439
330
159C
100
AcDbEntity
  8
0
  6
ByBlock
 62
     0
100
AcDbLine
 10
446.318046088481
 20
-19.65079346025982
 30
0.0
 11
446.318046088481
 21
-126.8052301197556
 31
0.0
  0
LINE
  5
143A
330
159C
100
AcDbEntity
  8
0
  6
ByBlock
 62
     0
100
AcDbLine
 10
2474.353052417114
 20
-126.6252301197556
 30
0.0
 11
1516.425549252797
 21
-126.6252301197556
 31
0.0
  0
LINE
  5
143B
330
159C
100
AcDbEntity
  8
0
  6
ByBlock
 62
     0
100
AcDbLine
 10
448.318046088481
 20
-126.6252301197556
 30
0.0
 11
1406.245549252797
 21
-126.6252301197556
 31
0.0
  0
SOLID
  5
143C
330
159C
100
AcDbEntity
  8
0
  6
ByBlock
 62
     0
100
AcDbTrace
 10
2476.353052417114
 20
-126.6252301197556
 30
0.0
 11
2474.353052417114
 21
-126.2918967864222
 31
0.0
 12
2474.353052417114
 22
-126.958563453089
 32
0.0
 13
2474.353052417114
 23
-126.958563453089
 33
0.0
  0
SOLID
  5
143D
330
159C
100
AcDbEntity
  8
0
  6
ByBlock
 62
     0
100
AcDbTrace
 10
446.318046088481
 20
-126.6252301197556
 30
0.0
 11
448.318046088481
 21
-126.2918967864222
 31
0.0
 12
448.318046088481
 22
-126.958563453089
 32
0.0
 13
448.318046088481
 23
-126.958563453089
 33
0.0
  0
TEXT
  5
143E
330
159C
100
AcDbEntity
  8
0
  6
ByBlock
 62
     0
100
AcDbText
 10
1406.335549252797
 20
-136.6252301197556
 30
0.0
 40
20.0
  1
2030.04
100
AcDbText
  0
ENDBLK
  5
1815
330
159C
100
AcDbEntity
  8
0
100
AcDbBlockEnd
  0
BLOCK
  5
1816
330
159E
100
AcDbEntity
  8
0
100
AcDbBlockBegin
  2
*X39
 70
     1
 71
     0
 10
0.0
 20
0.0
 30
0.0
  3
*X39
  1

  0
TEXT
  5
1520
330
159E
100
AcDbEntity
  8
DCC
  6
ByBlock
100
AcDbText
 10
2190.982055468618
 20
71.79363352731667
 30
0.0
 40
20.00000000000001
  1
Spax-
100
AcDbText
  0
TEXT
  5
1521
330
159E
100
AcDbEntity
  8
DCC
  6
ByBlock
100
AcDbText
 10
2190.982055468618
 20
38.46030019398331
 30
0.0
 40
20.00000000000001
  1
Booster
100
AcDbText
  0
ENDBLK
  5
1817
330
159E
100
AcDbEntity
  8
0
100
AcDbBlockEnd
  0
BLOCK
  5
1818
330
15B2
100
AcDbEntity
  8
0
100
AcDbBlockBegin
  2
*D40
 70
     1
 71
     0
 10
0.0
 20
0.0
 30
0.0
  3
*D40
  1

  0
POINT
  5
15A8
330
15B2
100
AcDbEntity
  8
DEFPOINTS
  6
ByBlock
 62
     0
100
AcDbPoint
 10
446.318046088481
 20
-19.58829346025982
 30
0.0
  0
POINT
  5
15A9
330
15B2
100
AcDbEntity
  8
DEFPOINTS
  6
ByBlock
 62
     0
100
AcDbPoint
 10
247.8624707457475
 20
327.7089633895239
 30
0.0
  0
LINE
  5
15AA
330
15B2
100
AcDbEntity
  8
0
  6
ByBlock
 62
     0
370
    -2
100
AcDbLine
 10
446.2637808920982
 20
-19.61930214390712
 30
0.0
 11
384.7219359161188
 21
-54.78607070160965
 31
0.0
  0
LINE
  5
15AB
330
15B2
100
AcDbEntity
  8
0
  6
ByBlock
 62
     0
370
    -2
100
AcDbLine
 10
247.8082055493647
 20
327.6779547058766
 30
0.0
 11
186.2663605733853
 21
292.511186148174
 31
0.0
  0
LINE
  5
15AC
330
15B2
100
AcDbEntity
  8
0
  6
ByBlock
 62
     0
370
    -2
100
AcDbLine
 10
383.8859418049876
 20
-52.96027940845649
 30
0.0
 11
315.4634208161966
 21
66.77913232192768
 31
0.0
  0
LINE
  5
15AD
330
15B2
100
AcDbEntity
  8
0
  6
ByBlock
 62
     0
370
    -2
100
AcDbLine
 10
187.4149222156814
 20
290.8640048728294
 30
0.0
 11
255.8374432044723
 21
171.1245931424452
 31
0.0
  0
SOLID
  5
15AE
330
15B2
100
AcDbEntity
  8
0
  6
ByBlock
 62
     0
100
AcDbTrace
 10
384.8782196817012
 20
-54.69676569270541
 30
0.0
 11
384.1753561856958
 21
-52.79489976233752
 31
0.0
 12
383.5965274242794
 22
-53.12565905457547
 32
0.0
 13
383.5965274242794
 23
-53.12565905457547
 33
0.0
  0
SOLID
  5
15AF
330
15B2
100
AcDbEntity
  8
0
  6
ByBlock
 62
     0
100
AcDbTrace
 10
186.4226443389677
 20
292.6004911570782
 30
0.0
 11
187.7043365963896
 21
291.0293845189484
 31
0.0
 12
187.1255078349732
 22
290.6986252267104
 32
0.0
 13
187.1255078349732
 23
290.6986252267104
 33
0.0
  0
MTEXT
  5
15B0
330
15B2
100
AcDbEntity
  8
0
  6
ByBlock
 62
     0
370
    -2
100
AcDbMText
 10
285.6504320103345
 20
118.9518627321864
 30
0.0
 40
20.0
 41
0.0
 71
     5
 72
     1
  1
\A1;400.0000
 73
     1
 44
1.0
  0
ENDBLK
  5
1819
330
15B2
100
AcDbEntity
  8
0
100
AcDbBlockEnd
  0
BLOCK
  5
181A
330
15BF
100
AcDbEntity
  8
0
100
AcDbBlockBegin
  2
*D41
 70
     1
 71
     0
 10
0.0
 20
0.0
 30
0.0
  3
*D41
  1

  0
POINT
  5
15B5
330
15BF
100
AcDbEntity
  8
DEFPOINTS
  6
ByBlock
 62
     0
100
AcDbPoint
 10
2476.353052417114
 20
476.047632964632
 30
0.0
  0
POINT
  5
15B6
330
15BF
100
AcDbEntity
  8
DEFPOINTS
  6
ByBlock
 62
     0
100
AcDbPoint
 10
2476.353052417114
 20
76.04763296463204
 30
0.0
  0
LINE
  5
15B7
330
15BF
100
AcDbEntity
  8
0
  6
ByBlock
 62
     0
370
    -2
100
AcDbLine
 10
2476.415552417114
 20
476.047632964632
 30
0.0
 11
2584.602208380495
 21
476.047632964632
 31
0.0
  0
LINE
  5
15B8
330
15BF
100
AcDbEntity
  8
0
  6
ByBlock
 62
     0
370
    -2
100
AcDbLine
 10
2476.415552417114
 20
76.04763296463204
 30
0.0
 11
2584.602208380495
 21
76.04763296463204
 31
0.0
  0
LINE
  5
15B9
330
15BF
100
AcDbEntity
  8
0
  6
ByBlock
 62
     0
370
    -2
100
AcDbLine
 10
2584.422208380495
 20
474.047632964632
 30
0.0
 11
2584.422208380495
 21
336.137632964632
 31
0.0
  0
LINE
  5
15BA
330
15BF
100
AcDbEntity
  8
0
  6
ByBlock
 62
     0
370
    -2
100
AcDbLine
 10
2584.422208380495
 20
78.04763296463204
 30
0.0
 11
2584.422208380495
 21
215.957632964632
 31
0.0
  0
SOLID
  5
15BB
330
15BF
100
AcDbEntity
  8
0
  6
ByBlock
 62
     0
100
AcDbTrace
 10
2584.422208380495
 20
476.047632964632
 30
0.0
 11
2584.088875047162
 21
474.047632964632
 31
0.0
 12
2584.755541713829
 22
474.047632964632
 32
0.0
 13
2584.755541713829
 23
474.047632964632
 33
0.0
  0
SOLID
  5
15BC
330
15BF
100
AcDbEntity
  8
0
  6
ByBlock
 62
     0
100
AcDbTrace
 10
2584.422208380495
 20
76.04763296463204
 30
0.0
 11
2584.088875047162
 21
78.04763296463204
 31
0.0
 12
2584.755541713829
 22
78.04763296463204
 32
0.0
 13
2584.755541713829
 23
78.04763296463204
 33
0.0
  0
MTEXT
  5
15BD
330
15BF
100
AcDbEntity
  8
0
  6
ByBlock
 62
     0
370
    -2
100
AcDbMText
 10
2584.422208380495
 20
276.047632964632
 30
0.0
 40
20.0
 41
0.0
 71
     5
 72
     1
  1
\A1;400.0000
 73
     1
 44
1.0
  0
ENDBLK
  5
181B
330
15BF
100
AcDbEntity
  8
0
100
AcDbBlockEnd
  0
BLOCK
  5
181C
330
15CC
100
AcDbEntity
  8
0
100
AcDbBlockBegin
  2
*D42
 70
     1
 71
     0
 10
0.0
 20
0.0
 30
0.0
  3
*D42
  1

  0
POINT
  5
15C2
330
15CC
100
AcDbEntity
  8
DEFPOINTS
  6
ByBlock
 62
     0
100
AcDbPoint
 10
2476.353052417114
 20
476.047632964632
 30
0.0
  0
POINT
  5
15C3
330
15CC
100
AcDbEntity
  8
DEFPOINTS
  6
ByBlock
 62
     0
100
AcDbPoint
 10
504.7925831770067
 20
476.0476329646323
 30
0.0
  0
LINE
  5
15C4
330
15CC
100
AcDbEntity
  8
0
  6
ByBlock
 62
     0
370
    -2
100
AcDbLine
 10
2476.353052417114
 20
476.110132964632
 30
0.0
 11
2476.353052417114
 21
565.9186727325898
 31
0.0
  0
LINE
  5
15C5
330
15CC
100
AcDbEntity
  8
0
  6
ByBlock
 62
     0
370
    -2
100
AcDbLine
 10
504.7925831770067
 20
476.1101329646323
 30
0.0
 11
504.7925831770067
 21
565.9186727325898
 31
0.0
  0
LINE
  5
15C6
330
15CC
100
AcDbEntity
  8
0
  6
ByBlock
 62
     0
370
    -2
100
AcDbLine
 10
2474.353052417114
 20
565.7386727325899
 30
0.0
 11
1562.329484463727
 21
565.7386727325899
 31
0.0
  0
LINE
  5
15C7
330
15CC
100
AcDbEntity
  8
0
  6
ByBlock
 62
     0
370
    -2
100
AcDbLine
 10
506.7925831770067
 20
565.7386727325899
 30
0.0
 11
1418.816151130394
 21
565.7386727325899
 31
0.0
  0
SOLID
  5
15C8
330
15CC
100
AcDbEntity
  8
0
  6
ByBlock
 62
     0
100
AcDbTrace
 10
2476.353052417114
 20
565.7386727325899
 30
0.0
 11
2474.353052417114
 21
566.0720060659232
 31
0.0
 12
2474.353052417114
 22
565.4053393992565
 32
0.0
 13
2474.353052417114
 23
565.4053393992565
 33
0.0
  0
SOLID
  5
15C9
330
15CC
100
AcDbEntity
  8
0
  6
ByBlock
 62
     0
100
AcDbTrace
 10
504.7925831770067
 20
565.7386727325899
 30
0.0
 11
506.7925831770067
 21
566.0720060659232
 31
0.0
 12
506.7925831770067
 22
565.4053393992565
 32
0.0
 13
506.7925831770067
 23
565.4053393992565
 33
0.0
  0
MTEXT
  5
15CA
330
15CC
100
AcDbEntity
  8
0
  6
ByBlock
 62
     0
370
    -2
100
AcDbMText
 10
1490.572817797061
 20
565.7386727325899
 30
0.0
 40
20.0
 41
0.0
 71
     5
 72
     1
  1
\A1;1971.5605
 73
     1
 44
1.0
  0
ENDBLK
  5
181D
330
15CC
100
AcDbEntity
  8
0
100
AcDbBlockEnd
  0
BLOCK
  5
181E
330
15D9
100
AcDbEntity
  8
0
100
AcDbBlockBegin
  2
*D43
 70
     1
 71
     0
 10
0.0
 20
0.0
 30
0.0
  3
*D43
  1

  0
POINT
  5
15CF
330
15D9
100
AcDbEntity
  8
DEFPOINTS
  6
ByBlock
 62
     0
100
AcDbPoint
 10
2476.353052417114
 20
76.04763296463204
 30
0.0
  0
POINT
  5
15D0
330
15D9
100
AcDbEntity
  8
DEFPOINTS
  6
ByBlock
 62
     0
100
AcDbPoint
 10
247.8624707457475
 20
327.7089633895239
 30
0.0
  0
LINE
  5
15D1
330
15D9
100
AcDbEntity
  8
0
  6
ByBlock
 62
     0
370
    -2
100
AcDbLine
 10
2476.360065903199
 20
76.10973820606093
 30
0.0
 11
2493.719887038435
 21
229.8329893470132
 31
0.0
  0
LINE
  5
15D2
330
15D9
100
AcDbEntity
  8
0
  6
ByBlock
 62
     0
370
    -2
100
AcDbLine
 10
247.8694842318322
 20
327.7710686309528
 30
0.0
 11
265.2293053670678
 21
481.4943197719054
 31
0.0
  0
LINE
  5
15D3
330
15D9
100
AcDbEntity
  8
0
  6
ByBlock
 62
     0
370
    -2
100
AcDbLine
 10
2491.712320472786
 20
229.8785578064072
 30
0.0
 11
1459.038537939459
 21
346.4974298558147
 31
0.0
  0
LINE
  5
15D4
330
15D9
100
AcDbEntity
  8
0
  6
ByBlock
 62
     0
370
    -2
100
AcDbLine
 10
267.1964742528683
 20
481.091025121881
 30
0.0
 11
1299.870256786195
 21
364.4721530724735
 31
0.0
  0
SOLID
  5
15D5
330
15D9
100
AcDbEntity
  8
0
  6
ByBlock
 62
     0
100
AcDbTrace
 10
2493.699688198511
 20
229.6541262516981
 30
0.0
 11
2491.749725731905
 21
230.2097857606947
 31
0.0
 12
2491.674915213668
 22
229.5473298521198
 32
0.0
 13
2491.674915213668
 23
229.5473298521198
 33
0.0
  0
SOLID
  5
15D6
330
15D9
100
AcDbEntity
  8
0
  6
ByBlock
 62
     0
100
AcDbTrace
 10
265.2091065271439
 20
481.3154566765902
 30
0.0
 11
267.2338795119865
 21
481.4222530761685
 31
0.0
 12
267.1590689937501
 22
480.7597971675936
 32
0.0
 13
267.1590689937501
 23
480.7597971675936
 33
0.0
  0
MTEXT
  5
15D7
330
15D9
100
AcDbEntity
  8
0
  6
ByBlock
 62
     0
370
    -2
100
AcDbMText
 10
1379.454397362827
 20
355.4847914641441
 30
0.0
 40
20.0
 41
0.0
 71
     5
 72
     1
  1
\A1;2242.6555
 73
     1
 44
1.0
  0
ENDBLK
  5
181F
330
15D9
100
AcDbEntity
  8
0
100
AcDbBlockEnd
  0
BLOCK
  5
1820
330
15E6
100
AcDbEntity
  8
0
100
AcDbBlockBegin
  2
*D44
 70
     1
 71
     0
 10
0.0
 20
0.0
 30
0.0
  3
*D44
  1

  0
POINT
  5
15DC
330
15E6
100
AcDbEntity
  8
DEFPOINTS
  6
ByBlock
 62
     0
100
AcDbPoint
 10
2476.353052417114
 20
476.047632964632
 30
0.0
  0
POINT
  5
15DD
330
15E6
100
AcDbEntity
  8
DEFPOINTS
  6
ByBlock
 62
     0
100
AcDbPoint
 10
446.318046088481
 20
-19.58829346025982
 30
0.0
  0
LINE
  5
15DE
330
15E6
100
AcDbEntity
  8
0
  6
ByBlock
 62
     0
370
    -2
100
AcDbLine
 10
2476.338228387891
 20
476.1083495040392
 30
0.0
 11
2465.836427652318
 21
519.1218236815057
 31
0.0
  0
LINE
  5
15DF
330
15E6
100
AcDbEntity
  8
0
  6
ByBlock
 62
     0
370
    -2
100
AcDbLine
 10
446.3032220592576
 20
-19.52757692085266
 30
0.0
 11
435.8014213236841
 21
23.48589725661417
 31
0.0
  0
LINE
  5
15E0
330
15E6
100
AcDbEntity
  8
0
  6
ByBlock
 62
     0
370
    -2
100
AcDbLine
 10
2463.936191595451
 20
518.4725911128635
 30
0.0
 11
1527.047112232571
 21
289.7297933976734
 31
0.0
  0
LINE
  5
15E1
330
15E6
100
AcDbEntity
  8
0
  6
ByBlock
 62
     0
370
    -2
100
AcDbLine
 10
437.7870437888772
 20
23.78540255827107
 30
0.0
 11
1374.676123151758
 21
252.5282002734612
 31
0.0
  0
SOLID
  5
15E2
330
15E6
100
AcDbEntity
  8
0
  6
ByBlock
 62
     0
100
AcDbTrace
 10
2465.879120856481
 20
518.9469600480131
 30
0.0
 11
2463.85713010626
 21
518.7964126563685
 31
0.0
 12
2464.015253084643
 22
518.1487695693585
 32
0.0
 13
2464.015253084643
 23
518.1487695693585
 33
0.0
  0
SOLID
  5
15E3
330
15E6
100
AcDbEntity
  8
0
  6
ByBlock
 62
     0
100
AcDbTrace
 10
435.8441145278476
 20
23.31103362312151
 30
0.0
 11
437.7079822996856
 21
24.10922410177606
 31
0.0
 12
437.8661052780688
 22
23.46158101476607
 32
0.0
 13
437.8661052780688
 23
23.46158101476607
 33
0.0
  0
MTEXT
  5
15E4
330
15E6
100
AcDbEntity
  8
0
  6
ByBlock
 62
     0
370
    -2
100
AcDbMText
 10
1450.861617692164
 20
271.1289968355673
 30
0.0
 40
20.0
 41
0.0
 71
     5
 72
     1
  1
\A1;2089.6644
 73
     1
 44
1.0
  0
ENDBLK
  5
1821
330
15E6
100
AcDbEntity
  8
0
100
AcDbBlockEnd
  0
BLOCK
  5
1822
330
15F1
100
AcDbEntity
  8
0
100
AcDbBlockBegin
  2
*D45
 70
     1
 71
     0
 10
0.0
 20
0.0
 30
0.0
  3
*D45
  1

  0
POINT
  5
15E8
330
15F1
100
AcDbEntity
  8
DEFPOINTS
  6
ByBlock
 62
     0
100
AcDbPoint
 10
2476.353052417114
 20
476.047632964632
 30
0.0
  0
POINT
  5
15E9
330
15F1
100
AcDbEntity
  8
DEFPOINTS
  6
ByBlock
 62
     0
100
AcDbPoint
 10
446.318046088481
 20
-19.58829346025982
 30
0.0
  0
LINE
  5
15EA
330
15F1
100
AcDbEntity
  8
0
  6
ByBlock
 62
     0
370
    -2
100
AcDbLine
 10
2476.338228387891
 20
476.1083495040392
 30
0.0
 11
2465.836427652318
 21
519.1218236815057
 31
0.0
  0
LINE
  5
15EB
330
15F1
100
AcDbEntity
  8
0
  6
ByBlock
 62
     0
370
    -2
100
AcDbLine
 10
446.3032220592576
 20
-19.52757692085266
 30
0.0
 11
435.8014213236841
 21
23.48589725661416
 31
0.0
  0
LINE
  5
15EC
330
15F1
100
AcDbEntity
  8
0
  6
ByBlock
 62
     0
370
    -2
100
AcDbLine
 10
2465.879120856481
 20
518.9469600480131
 30
0.0
 11
435.8441145278476
 21
23.3110336231215
 31
0.0
  0
SOLID
  5
15ED
330
15F1
100
AcDbEntity
  8
0
  6
ByBlock
 62
     0
100
AcDbTrace
 10
2465.879120856481
 20
518.9469600480131
 30
0.0
 11
2463.85713010626
 21
518.7964126563685
 31
0.0
 12
2464.015253084643
 22
518.1487695693585
 32
0.0
 13
2464.015253084643
 23
518.1487695693585
 33
0.0
  0
SOLID
  5
15EE
330
15F1
100
AcDbEntity
  8
0
  6
ByBlock
 62
     0
100
AcDbTrace
 10
435.8441145278476
 20
23.3110336231215
 30
0.0
 11
437.7079822996856
 21
24.10922410177606
 31
0.0
 12
437.8661052780688
 22
23.46158101476606
 32
0.0
 13
437.8661052780688
 23
23.46158101476606
 33
0.0
  0
MTEXT
  5
15EF
330
15F1
100
AcDbEntity
  8
0
  6
ByBlock
 62
     0
370
    -2
100
AcDbMText
 10
1480.353052417114
 20
245.4208295568915
 30
0.0
 40
20.0
 41
0.0
 71
     5
 72
     1
  1
\A1;2089.6644
 73
     1
 44
1.0
  0
ENDBLK
  5
1823
330
15F1
100
AcDbEntity
  8
0
100
AcDbBlockEnd
  0
BLOCK
  5
1824
330
15FF
100
AcDbEntity
  8
0
100
AcDbBlockBegin
  2
*D46
 70
     1
 71
     0
 10
0.0
 20
0.0
 30
0.0
  3
*D46
  1

  0
MTEXT
  5
15F4
330
15FF
100
AcDbEntity
  8
0
  6
ByBlock
 62
     0
370
    -2
100
AcDbMText
 10
658.4264989381414
 20
517.2137166228596
 30
0.0
 40
20.0
 41
0.0
 71
     5
 72
     1
  1
\A1;30%%d
 73
     1
 44
1.0
  0
POINT
  5
15F5
330
15FF
100
AcDbEntity
  8
DEFPOINTS
  6
ByBlock
 62
     0
100
AcDbPoint
 10
504.7925831770067
 20
476.0476329646323
 30
0.0
  0
POINT
  5
15F6
330
15FF
100
AcDbEntity
  8
DEFPOINTS
  6
ByBlock
 62
     0
100
AcDbPoint
 10
247.8624707457475
 20
327.7089633895239
 30
0.0
  0
POINT
  5
15F7
330
15FF
100
AcDbEntity
  8
DEFPOINTS
  6
ByBlock
 62
     0
100
AcDbPoint
 10
504.7925831770067
 20
476.0476329646323
 30
0.0
  0
POINT
  5
15F8
330
15FF
100
AcDbEntity
  8
DEFPOINTS
  6
ByBlock
 62
     0
100
AcDbPoint
 10
2476.353052417114
 20
476.047632964632
 30
0.0
  0
SOLID
  5
15F9
330
15FF
100
AcDbEntity
  8
0
  6
ByBlock
 62
     0
100
AcDbTrace
 10
663.8461166676386
 20
476.0476329646323
 30
0.0
 11
663.5002155397989
 21
478.0454977050164
 31
0.0
 12
664.166869030077
 22
478.0496891659167
 32
0.0
 13
664.166869030077
 23
478.0496891659167
 33
0.0
  0
SOLID
  5
15FA
330
15FF
100
AcDbEntity
  8
0
  6
ByBlock
 62
     0
100
AcDbTrace
 10
642.536983741573
 20
555.5743997099484
 30
0.0
 11
643.8157915364108
 21
554.0009443610511
 31
0.0
 12
643.2363569478581
 22
553.6712475275306
 32
0.0
 13
643.2363569478581
 23
553.6712475275306
 33
0.0
  0
LINE
  5
15FB
330
15FF
100
AcDbEntity
  8
0
  6
ByBlock
 62
     0
370
    -2
100
AcDbLine
 10
504.8467097647432
 20
476.0788829646323
 30
0.0
 11
642.6928683142542
 21
555.6643997099484
 31
0.0
  0
ARC
  5
15FC
330
15FF
100
AcDbEntity
  8
0
  6
ByBlock
 62
     0
370
    -2
100
AcDbCircle
 10
504.7925831770067
 20
476.0476329646323
 30
0.0
 40
159.053533490632
100
AcDbArc
 50
0.7204638052906576
 51
11.26699801965015
  0
ARC
  5
15FD
330
15FF
100
AcDbEntity
  8
0
  6
ByBlock
 62
     0
370
    -2
100
AcDbCircle
 10
504.7925831770067
 20
476.0476329646323
 30
0.0
 40
159.053533490632
100
AcDbArc
 50
18.79946197129487
 51
29.27953619470934
  0
ENDBLK
  5
1825
330
15FF
100
AcDbEntity
  8
0
100
AcDbBlockEnd
  0
BLOCK
  5
1826
330
161C
100
AcDbEntity
  8
0
100
AcDbBlockBegin
  2
*D47
 70
     1
 71
     0
 10
0.0
 20
0.0
 30
0.0
  3
*D47
  1

  0
MTEXT
  5
1611
330
161C
100
AcDbEntity
  8
0
  6
ByBlock
 62
     0
370
    -2
100
AcDbMText
 10
2429.641163672432
 20
-36.72484236684186
 30
0.0
 40
20.0
 41
0.0
 71
     5
 72
     1
  1
\A1;45%%d
 73
     1
 44
1.0
  0
POINT
  5
1612
330
161C
100
AcDbEntity
  8
DEFPOINTS
  6
ByBlock
 62
     0
100
AcDbPoint
 10
2380.717125992221
 20
-19.5882934602605
 30
0.0
  0
POINT
  5
1613
330
161C
100
AcDbEntity
  8
DEFPOINTS
  6
ByBlock
 62
     0
100
AcDbPoint
 10
2476.353052417114
 20
76.04763296463204
 30
0.0
  0
POINT
  5
1614
330
161C
100
AcDbEntity
  8
DEFPOINTS
  6
ByBlock
 62
     0
100
AcDbPoint
 10
2476.353052417114
 20
476.047632964632
 30
0.0
  0
POINT
  5
1615
330
161C
100
AcDbEntity
  8
DEFPOINTS
  6
ByBlock
 62
     0
100
AcDbPoint
 10
2476.353052417114
 20
76.04763296463204
 30
0.0
  0
SOLID
  5
1616
330
161C
100
AcDbEntity
  8
0
  6
ByBlock
 62
     0
100
AcDbTrace
 10
2390.040736544802
 20
-10.26468290767939
 30
0.0
 11
2391.700251859055
 21
-11.42963785653805
 31
0.0
 12
2391.232725101898
 22
-11.90488850176302
 32
0.0
 13
2391.232725101898
 23
-11.90488850176302
 33
0.0
  0
SOLID
  5
1617
330
161C
100
AcDbEntity
  8
0
  6
ByBlock
 62
     0
100
AcDbTrace
 10
2476.353052417114
 20
-46.01641474182173
 30
0.0
 11
2474.350388727178
 21
-46.33335204811913
 31
0.0
 12
2474.355850340808
 22
-45.6667077537453
 32
0.0
 13
2474.355850340808
 23
-45.6667077537453
 33
0.0
  0
LINE
  5
1618
330
161C
100
AcDbEntity
  8
0
  6
ByBlock
 62
     0
370
    -2
100
AcDbLine
 10
2476.353052417114
 20
75.98513296463204
 30
0.0
 11
2476.353052417114
 21
-46.07891474182173
 31
0.0
  0
ARC
  5
1619
330
161C
100
AcDbEntity
  8
0
  6
ByBlock
 62
     0
370
    -2
100
AcDbCircle
 10
2476.353052417114
 20
76.04763296463204
 30
0.0
 40
122.0640477064538
100
AcDbArc
 50
225.9387927324588
 51
237.2689628668784
  0
ARC
  5
161A
330
161C
100
AcDbEntity
  8
0
  6
ByBlock
 62
     0
370
    -2
100
AcDbCircle
 10
2476.353052417114
 20
76.04763296463204
 30
0.0
 40
122.0640477064538
100
AcDbArc
 50
259.0011298827311
 51
269.0612072675411
  0
ENDBLK
  5
1827
330
161C
100
AcDbEntity
  8
0
100
AcDbBlockEnd
  0
ENDSEC
  0
SECTION
  2
ENTITIES
  0
LINE
  5
1222
330
1F
100
AcDbEntity
  8
0
  6
ByBlock
100
AcDbLine
 10
247.8624707457475
 20
327.7089633895239
 30
0.0
 11
446.318046088481
 21
-19.58829346025982
 31
0.0
  0
LINE
  5
1224
330
1F
100
AcDbEntity
  8
0
  6
ByBlock
100
AcDbLine
 10
446.318046088481
 20
-19.58829346025982
 30
0.0
 11
2380.717125992222
 21
-19.5882934602605
 31
0.0
  0
LINE
  5
1227
330
1F
100
AcDbEntity
  8
0
  6
ByBlock
100
AcDbLine
 10
2476.353052417114
 20
76.04763296463204
 30
0.0
 11
2476.353052417114
 21
476.047632964632
 31
0.0
  0
LINE
  5
1228
330
1F
100
AcDbEntity
  8
0
  6
ByBlock
100
AcDbLine
 10
2476.353052417114
 20
76.04763296463204
 30
0.0
 11
2380.717125992221
 21
-19.5882934602605
 31
0.0
  0
LINE
  5
1229
330
1F
100
AcDbEntity
  8
0
  6
ByBlock
100
AcDbLine
 10
2476.353052417114
 20
476.047632964632
 30
0.0
 11
504.7925831770067
 21
476.0476329646323
 31
0.0
  0
LINE
  5
122A
330
1F
100
AcDbEntity
  8
0
  6
ByBlock
100
AcDbLine
 10
247.8624707457475
 20
327.7089633895239
 30
0.0
 11
504.7925831770067
 21
476.0476329646323
 31
0.0
  0
LWPOLYLINE
  5
1392
330
1F
100
AcDbEntity
  8
0
  6
ByBlock
100
AcDbPolyline
 90
        2
 70
     0
 43
9.0
 10
347.0902584171142
 20
154.060334964632
 10
355.7505124171141
 20
159.060334964632
  0
LWPOLYLINE
  5
13A1
330
1F
100
AcDbEntity
  8
0
  6
ByBlock
100
AcDbPolyline
 90
        3
 70
     0
 43
9.0
 10
355.7505124171141
 20
159.060334964632
 10
626.3530524171142
 20
252.047632964632
 10
892.3530524171142
 20
276.047632964632
  0
LWPOLYLINE
  5
13B3
330
1F
100
AcDbEntity
  8
0
  6
ByBlock
100
AcDbPolyline
 90
        3
 70
     0
 43
9.0
 10
892.3530524171142
 20
276.047632964632
 10
1124.353052417114
 20
276.047632964632
 10
1836.353052417114
 20
276.047632964632
  0
LWPOLYLINE
  5
13B8
330
1F
100
AcDbEntity
  8
0
  6
ByBlock
100
AcDbPolyline
 90
        2
 70
     0
 43
9.0
 10
2476.353052417114
 20
276.047632964632
 10
1836.353052417114
 20
276.047632964632
  0
LWPOLYLINE
  5
13C2
330
1F
100
AcDbEntity
  8
0
  6
ByBlock
100
AcDbPolyline
 90
        2
 70
     0
 43
9.0
 10
2370.178919417114
 20
220.682543964632
 10
1520.178917417114
 20
220.682542964632
  0
LWPOLYLINE
  5
13C7
330
1F
100
AcDbEntity
  8
0
  6
ByBlock
100
AcDbPolyline
 90
        2
 70
     0
 43
9.0
 10
2414.665782417114
 20
188.181654964632
 10
1704.337966417114
 20
188.181654964632
  0
LWPOLYLINE
  5
13D0
330
1F
100
AcDbEntity
  8
0
  6
ByBlock
100
AcDbPolyline
 90
        3
 70
     0
 43
9.0
 10
2448.885782417114
 20
160.181654964632
 10
1838.885775417114
 20
160.181654964632
 10
1564.885775417114
 20
160.181654964632
  0
LWPOLYLINE
  5
13D5
330
1F
100
AcDbEntity
  8
0
  6
ByBlock
100
AcDbPolyline
 90
        2
 70
     0
 43
9.0
 10
2300.385782417114
 20
160.181654964632
 10
2166.165782417114
 20
188.181654964632
  0
LWPOLYLINE
  5
13DE
330
1F
100
AcDbEntity
  8
0
  6
ByBlock
100
AcDbPolyline
 90
        2
 70
     0
 43
9.0
 10
1564.885775417114
 20
160.181654964632
 10
1114.885775417114
 20
160.181654964632
  0
LWPOLYLINE
  5
13E3
330
1F
100
AcDbEntity
  8
0
  6
ByBlock
100
AcDbPolyline
 90
        2
 70
     0
 43
9.0
 10
1770.385775417114
 20
160.181654964632
 10
1124.353052417114
 20
276.047632964632
  0
LWPOLYLINE
  5
13E8
330
1F
100
AcDbEntity
  8
0
  6
ByBlock
100
AcDbPolyline
 90
        2
 70
     0
 10
1520.178917417114
 20
220.682542964632
 40
9.0
 41
9.0
 10
1433.051606291488
 20
220.682542964632
 40
0.0
 41
0.0
  0
LWPOLYLINE
  5
13ED
330
1F
100
AcDbEntity
  8
0
  6
ByBlock
100
AcDbPolyline
 90
        2
 70
     0
 10
1704.337966417114
 20
188.181654964632
 40
9.0
 41
9.0
 10
1614.266467953106
 20
188.181654964632
 40
0.0
 41
0.0
  0
LWPOLYLINE
  5
13F2
330
1F
100
AcDbEntity
  8
0
  6
ByBlock
100
AcDbPolyline
 90
        2
 70
     0
 43
9.0
 10
1566.275775417114
 20
146.181654964632
 10
1633.385775417114
 20
160.181654964632
  0
LWPOLYLINE
  5
13FB
330
1F
100
AcDbEntity
  8
0
  6
ByBlock
100
AcDbPolyline
 90
        3
 70
     0
 43
9.0
 10
1566.275775417114
 20
146.181654964632
 10
1264.885775417114
 20
100.1816549646321
 10
964.885775417114
 20
100.1816549646321
  0
LWPOLYLINE
  5
1410
330
1F
100
AcDbEntity
  8
0
  6
ByBlock
100
AcDbPolyline
 90
        5
 70
     0
 10
390.5710204171141
 20
138.7494449646319
 40
9.0
 41
9.0
 10
639.8722904171141
 20
223.7494449646321
 40
9.0
 41
9.0
 10
898.2172104171141
 20
240.204784964632
 40
9.0
 41
9.0
 10
1111.217210417114
 20
240.204784964632
 40
9.0
 41
9.0
 10
1324.201645534889
 20
240.204784964632
 40
0.0
 41
0.0
  0
LWPOLYLINE
  5
1421
330
1F
100
AcDbEntity
  8
0
  6
ByBlock
100
AcDbPolyline
 90
        5
 70
     0
 43
9.0
 10
405.5710204171141
 20
112.768682964632
 10
644.8722904171141
 20
196.768682964632
 10
897.8722904171141
 20
209.768682964632
 10
1112.607210417114
 20
226.204784964632
 10
1179.717210417114
 20
240.204784964632
  0
TEXT
  5
142E
330
1F
100
AcDbEntity
  8
0
  6
ByBlock
100
AcDbText
 10
577.7479923911182
 20
9.205772014412929
 30
0.0
 40
20.0
  1
Zeche Mauritz Humboldt
100
AcDbText
  0
TEXT
  5
142F
330
1F
100
AcDbEntity
  8
0
  6
ByBlock
100
AcDbText
 10
328.6738496356847
 20
268.4983411393
 30
0.0
 40
20.0
  1
fN1t
100
AcDbText
  0
TEXT
  5
1430
330
1F
100
AcDbEntity
  8
0
  6
ByBlock
100
AcDbText
 10
2391.518672969146
 20
349.808899356022
 30
0.0
 40
20.0
  1
fN1t
100
AcDbText
  0
LWPOLYLINE
  5
1431
330
1F
100
AcDbEntity
  8
DCC
  6
ByBlock
100
AcDbPolyline
 90
        4
 70
     1
 43
0.0
 10
2176.931719210619
 20
108.3985763776789
 10
2339.149237825696
 20
108.3985763776789
 10
2339.149237825696
 20
29.20577201441293
 10
2176.931719210619
 20
29.20577201441293
  0
INSERT
  5
1432
330
1F
100
AcDbEntity
  8
DCC
  6
ByBlock
100
AcDbBlockReference
  2
*X39
 10
0.0
 20
0.0
 30
0.0
  0
DIMENSION
  5
1434
330
1F
100
AcDbEntity
  8
INFO
  6
ByBlock
100
AcDbDimension
  2
*D38
 10
446.318046088481
 20
-126.6252301197556
 30
0.0
 11
1461.335549252797
 21
-126.6252301197556
 31
0.0
 70
    32
 71
     5
 42
2030.035006328633
  3
Standard
100
AcDbAlignedDimension
 13
2476.353052417114
 23
76.04763296463204
 33
0.0
 14
446.318046088481
 24
-19.58829346025982
 34
0.0
100
AcDbRotatedDimension
1001
ACAD
1000
DSTYLE
1002
{
1070
     3
1000
<>
1070
    41
1040
2.0
1070
   140
1040
20.0
1070
   271
1070
     2
1070
   279
1070
     2
1002
}
  0
DIMENSION
  5
15A6
330
1F
100
AcDbEntity
  8
INFO
  6
ByBlock
100
AcDbDimension
  2
*D40
 10
186.4226443389677
 20
292.6004911570783
 30
0.0
 11
285.6504320103345
 21
118.9518627321864
 31
0.0
 70
    33
 71
     5
 41
20.0
 42
400.0000000000001
  3
Standard
100
AcDbAlignedDimension
 13
446.318046088481
 23
-19.58829346025982
 33
0.0
 14
247.8624707457475
 24
327.7089633895239
 34
0.0
1001
ACAD
1000
DSTYLE
1002
{
1070
     3
1000
<>
1070
    41
1040
2.0
1070
   140
1040
20.0
1070
   279
1070
     2
1002
}
  0
DIMENSION
  5
15B3
330
1F
100
AcDbEntity
  8
INFO
  6
ByBlock
100
AcDbDimension
  2
*D41
 10
2584.422208380495
 20
76.04763296463204
 30
0.0
 11
2584.422208380495
 21
276.047632964632
 31
0.0
 70
    33
 71
     5
 41
20.0
 42
399.9999999999999
  3
Standard
100
AcDbAlignedDimension
 13
2476.353052417114
 23
476.047632964632
 33
0.0
 14
2476.353052417114
 24
76.04763296463204
 34
0.0
1001
ACAD
1000
DSTYLE
1002
{
1070
     3
1000
<>
1070
    41
1040
2.0
1070
   140
1040
20.0
1070
   279
1070
     2
1002
}
  0
DIMENSION
  5
15C0
330
1F
100
AcDbEntity
  8
INFO
  6
ByBlock
100
AcDbDimension
  2
*D42
 10
504.7925831770067
 20
565.7386727325899
 30
0.0
 11
1490.572817797061
 21
565.7386727325899
 31
0.0
 70
    33
 71
     5
 41
20.0
 42
1971.560469240108
  3
Standard
100
AcDbAlignedDimension
 13
2476.353052417114
 23
476.047632964632
 33
0.0
 14
504.7925831770067
 24
476.0476329646323
 34
0.0
1001
ACAD
1000
DSTYLE
1002
{
1070
     3
1000
<>
1070
    41
1040
2.0
1070
   140
1040
20.0
1070
   279
1070
     2
1002
}
  0
DIMENSION
  5
15CD
330
1F
100
AcDbEntity
  8
INFO
  6
ByBlock
100
AcDbDimension
  2
*D43
 10
265.2091065271438
 20
481.3154566765902
 30
0.0
 11
1379.454397362827
 21
355.4847914641441
 31
0.0
 70
    33
 71
     5
 41
20.0
 42
2242.655501370911
  3
Standard
100
AcDbAlignedDimension
 13
2476.353052417114
 23
76.04763296463204
 33
0.0
 14
247.8624707457475
 24
327.7089633895239
 34
0.0
1001
ACAD
1000
DSTYLE
1002
{
1070
     3
1000
<>
1070
    41
1040
2.0
1070
   140
1040
20.0
1070
   279
1070
     2
1002
}
  0
DIMENSION
  5
15DA
330
1F
100
AcDbEntity
  8
INFO
  6
ByBlock
100
AcDbDimension
  2
*D45
 10
435.8441145278476
 20
23.3110336231215
 30
0.0
 11
1480.353052417114
 21
245.4208295568915
 31
0.0
 70
    33
 71
     5
 41
20.0
 42
2089.664350675188
  3
Standard
100
AcDbAlignedDimension
 13
2476.353052417114
 23
476.047632964632
 33
0.0
 14
446.318046088481
 24
-19.58829346025982
 34
0.0
1001
ACAD
1000
DSTYLE
1002
{
1070
     3
1000
<>
1070
    41
1040
2.0
1070
   140
1040
20.0
1070
   279
1070
     2
1002
}
  0
DIMENSION
  5
15F2
330
1F
100
AcDbEntity
  8
INFO
  6
ByBlock
100
AcDbDimension
  2
*D46
 10
504.7925831770067
 20
476.0476329646323
 30
0.0
 11
658.4264989381414
 21
517.2137166228596
 31
0.0
 70
    34
 71
     5
 41
0.0
 42
0.5235987755982996
  3
Standard
100
AcDb2LineAngularDimension
 13
247.8624707457475
 23
327.7089633895239
 33
0.0
 14
504.7925831770067
 24
476.0476329646323
 34
0.0
 15
2476.353052417114
 25
476.047632964632
 35
0.0
 16
658.8120528734065
 26
515.7468706184635
 36
0.0
1001
ACAD
1000
DSTYLE
1002
{
1070
     3
1000
<>
1070
    41
1040
2.0
1070
   140
1040
20.0
1070
   279
1070
     2
1002
}
  0
DIMENSION
  5
160F
330
1F
100
AcDbEntity
  8
INFO
  6
ByBlock
100
AcDbDimension
  2
*D47
 10
2380.717125992221
 20
-19.5882934602605
 30
0.0
 11
2429.641163672432
 21
-36.72484236684186
 31
0.0
 70
    34
 71
     5
 41
0.0
 42
0.7853981633974513
  3
Standard
100
AcDb2LineAngularDimension
 13
2476.353052417114
 23
76.04763296463204
 33
0.0
 14
2476.353052417114
 24
476.047632964632
 34
0.0
 15
2476.353052417114
 25
76.04763296463204
 35
0.0
 16
2443.704543170362
 26
-41.56914554272271
 36
0.0
1001
ACAD
1000
DSTYLE
1002
{
1070
     3
1000
<>
1070
    41
1040
2.0
1070
   140
1040
20.0
1070
   279
1070
     2
1002
}
  0
LINE
  5
17C2
330
1F
100
AcDbEntity
  8
BEDIENRAUM
  6
ByBlock
100
AcDbLine
 10
504.7925831770067
 20
476.0476329646323
 30
0.0
 11
504.7925831770067
 21
1176.047632964632
 31
0.0
  0
LINE
  5
17C3
330
1F
100
AcDbEntity
  8
BEDIENRAUM
  6
ByBlock
100
AcDbLine
 10
2476.338228387891
 20
476.1083495040392
 30
0.0
 11
2476.338228387891
 21
1176.108349504039
 31
0.0
  0
LINE
  5
17C4
330
1F
100
AcDbEntity
  8
BEDIENRAUM
  6
ByBlock
100
AcDbLine
 10
2476.338228387891
 20
1176.108349504039
 30
0.0
 11
504.7925831770067
 21
1176.047632964632
 31
0.0
  0
VIEWPORT
  5
91D
330
73
100
AcDbEntity
 67
     1
  8
0
  6
ByBlock
100
AcDbViewport
 10
7.8
 20
4.5
 30
0.0
 40
15.64
 41
9.0
 68
     1
 69
     1
 12
6.0
 22
4.5
 13
0.0
 23
0.0
 14
0.5
 24
0.5
 15
0.5
 25
0.5
 16
0.0
 26
0.0
 36
1.0
 17
0.0
 27
0.0
 37
0.0
 42
50.0
 43
0.0
 44
0.0
 45
12.0
 50
0.0
 51
0.0
 72
   100
 90
    32864
  1

281
     0
 71
     0
 74
     0
110
0.0
120
0.0
130
0.0
111
1.0
121
0.0
131
0.0
112
0.0
122
1.0
132
0.0
 79
     0
146
0.0
170
     0
  0
ENDSEC
  0
SECTION
  2
OBJECTS
  0
DICTIONARY
  5
C
330
0
100
AcDbDictionary
281
     1
  3
ACAD_COLOR
350
6C
  3
ACAD_GROUP
350
D
  3
ACAD_LAYOUT
350
1A
  3
ACAD_MATERIAL
350
6B
  3
ACAD_MLINESTYLE
350
17
  3
ACAD_PLOTSETTINGS
350
19
  3
ACAD_PLOTSTYLENAME
350
E
  3
ACAD_TABLESTYLE
350
92
  3
AcDbVariableDictionary
350
59
  0
DICTIONARY
  5
6C
102
{ACAD_REACTORS
330
C
102
}
330
C
100
AcDbDictionary
281
     1
  0
DICTIONARY
  5
D
102
{ACAD_REACTORS
330
C
102
}
330
C
100
AcDbDictionary
281
     1
  0
DICTIONARY
  5
1A
102
{ACAD_REACTORS
330
C
102
}
330
C
100
AcDbDictionary
281
     1
  3
Layout1
350
74
  3
Model
350
22
  0
DICTIONARY
  5
6B
102
{ACAD_REACTORS
330
C
102
}
330
C
100
AcDbDictionary
281
     1
  0
DICTIONARY
  5
17
102
{ACAD_REACTORS
330
C
102
}
330
C
100
AcDbDictionary
281
     1
  3
Standard
350
18
  0
DICTIONARY
  5
19
102
{ACAD_REACTORS
330
C
102
}
330
C
100
AcDbDictionary
281
     1
  0
ACDBDICTIONARYWDFLT
  5
E
102
{ACAD_REACTORS
330
C
102
}
330
C
100
AcDbDictionary
281
     1
  3
Normal
350
F
100
AcDbDictionaryWithDefault
340
F
  0
DICTIONARY
  5
92
102
{ACAD_REACTORS
330
C
102
}
330
C
100
AcDbDictionary
281
     1
  0
DICTIONARY
  5
59
102
{ACAD_REACTORS
330
C
102
}
330
C
100
AcDbDictionary
281
     1
  3
HALOGAP
350
17C0
  3
INDEXCTL
350
15A4
  3
XCLIPFRAME
350
15A3
  0
LAYOUT
  5
74
102
{ACAD_REACTORS
330
1A
102
}
330
1A
100
AcDbPlotSettings
  1

  2
none_device
  4
none_device
  6

 40
6.35
 41
6.35
 42
6.35000508
 43
6.35000508
 44
215.9
 45
279.4
 46
0.0
 47
0.0
 48
0.0
 49
0.0
140
0.0
141
0.0
142
1.0
143
1.0
 70
   688
 72
     0
 73
     0
 74
     5
  7

 75
    16
 76
     0
 77
     2
 78
   300
147
1.0
148
0.0
149
0.0
100
AcDbLayout
  1
Layout1
 70
     1
 71
     1
 10
0.0
 20
0.0
 11
12.0
 21
9.0
 12
0.0
 22
0.0
 32
0.0
 14
0.0
 24
0.0
 34
0.0
 15
12.0
 25
9.0
 35
0.0
146
0.0
 13
0.0
 23
0.0
 33
0.0
 16
1.0
 26
0.0
 36
0.0
 17
0.0
 27
1.0
 37
0.0
 76
     0
330
73
331
91D
  0
LAYOUT
  5
22
102
{ACAD_REACTORS
330
1A
102
}
330
1A
100
AcDbPlotSettings
  1

  2
none_device
  4
none_device
  6

 40
6.35
 41
6.35
 42
6.35000508
 43
6.35000508
 44
215.9
 45
279.4
 46
0.0
 47
0.0
 48
0.0
 49
0.0
140
0.0
141
0.0
142
1.0
143
359.3692561163808
 70
 11952
 72
     0
 73
     0
 74
     0
  7

 75
     0
 76
     0
 77
     2
 78
   300
147
0.0027826531707436
148
0.0
149
0.0
100
AcDbLayout
  1
Model
 70
     1
 71
     0
 10
0.0
 20
0.0
 11
12.0
 21
9.0
 12
0.0
 22
0.0
 32
0.0
 14
247.8624707457475
 24
-19.5882934602605
 34
0.0
 15
2476.353052417114
 25
1176.108349504039
 35
0.0
146
0.0
 13
0.0
 23
0.0
 33
0.0
 16
1.0
 26
0.0
 36
0.0
 17
0.0
 27
1.0
 37
0.0
 76
     0
330
1F
  0
MLINESTYLE
  5
18
102
{ACAD_REACTORS
330
17
102
}
330
17
100
AcDbMlineStyle
  2
Standard
 70
     0
  3

 62
   256
 51
90.0
 52
90.0
 71
     2
 49
0.5
 62
   256
  6
BYLAYER
 49
-0.5
 62
   256
  6
BYLAYER
  0
ACDBPLACEHOLDER
  5
F
102
{ACAD_REACTORS
330
E
102
}
330
E
  0
DICTIONARYVAR
  5
17C0
102
{ACAD_REACTORS
330
59
102
}
330
59
100
DictionaryVariables
280
     0
  1
2
  0
DICTIONARYVAR
  5
15A4
102
{ACAD_REACTORS
330
59
102
}
330
59
100
DictionaryVariables
280
     0
  1
1
  0
DICTIONARYVAR
  5
15A3
102
{ACAD_REACTORS
330
59
102
}
330
59
100
DictionaryVariables
280
     0
  1
0
  0
ENDSEC
  0
SECTION
  2
THUMBNAILIMAGE
 90
    16364
310
28000000B40000005500000001000800000000000000000000000000000000000000000000000000FFFFFF000000FF0000FFFF0000FF0000FFFF0000FF000000FF00FF000000000080808000C0C0C0000000FF007F7FFF000000A5005252A50000007F003F3F7F0000004C0026264C000000260013132600003FFF007F9FFF
310
000029A5005267A500001F7F003F4F7F0000134C00262F4C000009260013172600007FFF007FBFFF000052A500527CA500003F7F003F5F7F0000264C0026394C0000132600131C260000BFFF007FDFFF00007CA5005291A500005F7F003F6F7F0000394C0026424C00001C26001321260000FFFF007FFFFF0000A5A50052A5
310
A500007F7F003F7F7F00004C4C00264C4C00002626001326260000FFBF007FFFDF0000A57C0052A59100007F5F003F7F6F00004C3900264C420000261C001326210000FF7F007FFFBF0000A5520052A57C00007F3F003F7F5F00004C2600264C39000026130013261C0000FF3F007FFF9F0000A5290052A56700007F1F003F
310
7F4F00004C1300264C2F00002609001326170000FF00007FFF7F0000A5000052A55200007F00003F7F3F00004C0000264C260000260000132613003FFF00009FFF7F0029A5000067A552001F7F00004F7F3F00134C00002F4C260009260000172613007FFF0000BFFF7F0052A500007CA552003F7F00005F7F3F00264C0000
310
394C2600132600001C261300BFFF0000DFFF7F007CA5000091A552005F7F00006F7F3F00394C0000424C26001C26000021261300FFFF0000FFFF7F00A5A50000A5A552007F7F00007F7F3F004C4C00004C4C26002626000026261300FFBF0000FFDF7F00A57C0000A59152007F5F00007F6F3F004C3900004C422600261C00
310
0026211300FF7F0000FFBF7F00A5520000A57C52007F3F00007F5F3F004C2600004C39260026130000261C1300FF3F0000FF9F7F00A5290000A56752007F1F00007F4F3F004C1300004C2F26002609000026171300FF000000FF7F7F00A5000000A55252007F0000007F3F3F004C0000004C2626002600000026131300FF00
310
3F00FF7F9F00A5002900A55267007F001F007F3F4F004C0013004C262F002600090026131700FF007F00FF7FBF00A5005200A5527C007F003F007F3F5F004C0026004C2639002600130026131C00FF00BF00FF7FDF00A5007C00A55291007F005F007F3F6F004C0039004C26420026001C0026132100FF00FF00FF7FFF00A5
310
00A500A552A5007F007F007F3F7F004C004C004C264C002600260026132600BF00FF00DF7FFF007C00A5009152A5005F007F006F3F7F0039004C0042264C001C002600211326007F00FF00BF7FFF005200A5007C52A5003F007F005F3F7F0026004C0039264C00130026001C1326003F00FF009F7FFF002900A5006752A500
310
1F007F004F3F7F0013004C002F264C000900260017132600000000002D2D2D005B5B5B0089898900B7B7B700B3B3B30000000000000000000000000000000000000000000000000000000000000000000000000000000000000000000000000000000000000000000000000000000000000000000000000000000000000000
310
00000000000000000000000000000000000000000000000000000000000000000000000000000000000000000000000000000000000000000000000000000000000000000000000000000000000000000000000000000000000000000000000000000000000000000000000000000000000000000000000000000000000000
310
00000000000000000000000000000000000000000000000000000000000000000000000000000000000000000000000000000000000000000000000000000000000000000000000000000000000000000000000000000000000000000000000000000000000000000000000000000000000000000000000000000000000000
310
00000000000000000000000000000000000000000000000000000000000000000000000000000000000000000000000000000000000000000000000000000000000000000000000000000000000000000000000000000000000000000000000000000000000000000000000000000000000000000000000000000000000000
310
00000000000000000000000000000000000000000000000000000000000000000000000000000000000000000000000000000000000000000000000000000000000000000000000000000000000000000000000000000000000000000000000000000000000000000000000000000000000000000000000000000000000000
310
00000000000000000000000000000000000000000000000000000000000000000000000000000000000000000000000000000000000000000000000000000000000000000000000000000000000000000000000000000000000000000000000000000000000000000000000000000000000000000000000000000000000000
310
00000000000000000000000000000000000000000000000000000000000000000000000000000000000000000000000000000000000000000000000000000000000000000000000000000000000000000000000000000000000000000000000000000000000000000000000000000000000000000000000000000000000000
310
00000000000000000000000000000000000000000000000000000000000000000000000000000000000000000000000000000000000000000000000000000000000000000000000000000000000000000000000000000000000000000000000000000000000000000000000000000000000000000000000000000000000000
310
00000000000000000000000000000000000000000000000000000000000000000000000000000000000000000000000000000000000000000000000000000000000000000000000000000000000000000000000000000000000000000000000000000000000000000000000000000000000000000000000000000000000000
310
00000000000000000000000000000000000000000000000000000000000000000000000000000000000000000000000000000000000000000000000000000000000000000000000000000000000000000000000000000000000000000000000000000000000000000000000000000000000000000000000000000000000000
310
00000000000000000000000000000000000000000000000000000000000000000000000000000000000000000000000000000000000000000000000000000000000000000000000000000000000000000000000000000000000000000000000000000000000000000000000000000000000000000000000000000000000000
310
00000000000000000000000000000000000000000000000000000000000000000000000000000000000000000000000000000000000000000000000000000000000000000000000000000000000000000000000000000000000000000000000000000000000000000000000000000000000000000000000000000000000000
310
00000000000000000000000000000000000000000000000000000000000000000000000000000000000000000000000000000000000000000000000000000000000000000000000000000000000000000000000000000000000000000000000000000000000000000000000000000000000000000000000000000000000000
310
00000000000000000000000000000000000000000000000000000000000000000000000000000000000000000000000000000000000000000000000000000000000000000000000000000000000000000000000000000000000000000000000000000000000000000000000000000000000000000000000000000000000000
310
00000000000000000000000000000000000000000000000000000000000000000000000000000000000000000000000000000000000000000000000000000000000000000000000000000000000000000000000000000000000000000000000000000000000000000000000000000000000000000000000000000000000000
310
00000000000000000000000000000000000000000000000000000000000000000000000000000000000000000000000000000000000000000000000000000000000000000000000000000000000000000000000000000000000000000000000000000000000000000000000000000000000000000000000000000000000000
310
00000000000000000000000000000000000000000000000000000000000000000000000000000000000000000000000000000000000000000000000000000000000000000000000000000000000000000000000000000000000000000000000000000000000000000000000000000000000000000000000000000000000000
310
00000000000000000000000000000000000000000000000000000000000000000000000000000000000000000000000000000000000000000000000000000000000000000000000000000000000000000000000000000000000000000000000000000000000000000000000000000000000000000000000000000000000000
310
00000000000000000000000000000000000000000000000000000000000000000000000000000000000000000000000000000000000000000000000000000000000000000000000000000000000000000000000000000000000000000000000000000000000000000000000000000000000000000000000000000000000000
310
00000000000000000000000000000000000000000000000000000000000000000000000000000000000000000000000000000000000000000000000000000000000000000000000000000000000000000000000000000000000000000000000000000000000000000000000000000000000000000000000000000000000000
310
00000000000000000000000000000000000000000000000000000000000000000000000000000000000000000000000000000000000000000000000000000000000000000000000000000000000000000000000000000000000000000000000000000000000000000000000000000000000000000000000000000000000000
310
00000000000000000000000000000000000000000000000000000000000000000000000000000000000000000000000000000000000000000000000000000000000000000000000000000000000000000000000000000000000000000000000000000000000000000000000000000000000000000000000000000000000000
310
00000000000000000000000000000000000000000000000000000000000000000000000000000000000000000000000000000000000000000000000000000000000000000000000000000000000000000000000000000000000000000000000000000000000000000000000000000000000000000000000000000000000000
310
00000000000000000000000000000000000000000000000000000000000000000000000000000000000000000000000000000000000000000000000000000000000000000000000000000000000000000000000000000000000000000000000000000000000000000000000000000000000000000000000000000000000000
310
00000000000000000000000000000000000000000000000000000000000000000000000000000000000000000000000000000000000000000000000000000000000000000000000000000000000000000000000000000000000000000000000000000000000000000000000000000000000000000000000000000000000000
310
00000000000000000000000000000000000000000000000000000000000000000000000000000000000000000000000000000000000000000000000000000000000000000000000000000000000000000000000000000000000000000000000000000000000000000000000000000000000000000000000000000000000000
310
00000000000000000000000000000000000000000000000000000000000000000000000000000000000000000000000000000000000000000000000000000000000000000000000000000000000000000000000000000000000000000000000000000000000000000000000000000000000000000000000000000000000000
310
00000000000000000000000000000000000000000000000000000000000000000000000000000000000000000000000000000000000000000000000000000000000000000000000000000000000000000000000000000000000000000000000000000000000000000000000000000000000000000000000000000000000000
310
00000000000000000000000000000000000000000000000000000000000000000000000000000000000000000000000000000000000000000000000000000000000000000000000000000000000000000000000000000000000000000000000000000000000000000000000000000000000000000000000000000000000000
310
00000000000000000000000000000000000000000000000000000000000000000000000000000000000000000000000000000000000000000000000000000000000000000000000000000000000000000000000000000000000000000000000000000000000000000000000000000000000000000000000000000000000000
310
00000000000000000000000000000000000000000000000000000000000000000000000000000000000000000000000000000000000000000000000000000000000000000000000000000000000000000000000000000000000000000000000000000000000000000000000000000000000000000000000000000000000000
310
00000000000000000000000000000000000000000000000000000000000000000000000000000000000000000000000000000000000000000000000000000000000000000000000000000000000000000000000000000000000000000000000000000000000000000000000000000000000000000000000000000000000000
310
00000000000000000000000000000000000000000000000000000000000000000000000000000000000000000000000000000000000000000000000000000000000000000000000000000000000000000000000000000000000000000000000000000000000000000000000000000000000000000000000000000000000000
310
00000000000000000000000000000000000000000000000000000000000000000000000000000000000000000000000000000000000000000000000000000000000000000000000000000000000000000000000000000000000000000000000000000000000000000000000000000000000000000000000000000000000000
310
00000000000000000000000000000000000000000000000000000000000000000000000000000000000000000000000000000000000000000000000000000000000000000000000000000000000000000000000000000000000000000000000000000000000000000000000000000000000000000000000000000000000000
310
00000000000000000000000000000000000000000000000000000000000000000000000000000000000000000000000000000000000000000000000000000000000000000000000000000000000000000000000000000000000000000000000000000000000000000000000000000000000000000000000000000000000000
310
00000000000000000000000000000307070707070707070707070707070707070707070707070707070707070707070707070707070707070707070707070707070707070707070707070707070707070707070707070707070707070300000000000000000000000000000000000000000000000000000000000000000000
310
00000000000000000000000000000000000000000000000000000000000000000000000000000000000000000000000000000000000000000000000000000000000007000000000000070707070707070707070707070707070700000000000000000000000000000000000000000000000000000000000000000000000000
310
00000000000000000000000000000000000000070000000000000000000000000000000000000000000000000000000000000000000000000000000000000000000000000000000000000000000000000000000000000000000000000000000000000000000000000000000000000000000000000000000700000000000007
310
07070707070707070707070707070707000000000000000000000000000000000000000000000000000000000000000000000000000000000000000000000004040404040404000000070000000000000000000000000000000000000000000000000000000000000000000000000000000000000000000000000000000000
310
00000000000000000000000000000000000000000000000000000000000000000000000000000000000000000700000000000000000000000000000000000000000000000000000000000000000000000000000000000000000000000000000000000000000000000000000000000000000000000404040404040400000000
310
07000000000000000000000000000000000000000000000000000000000000000000000000000000000000000000000000000000000000000000000000000000000000000000000000000000000000000000000000000000000000000000000000070000000000000000000000000000000000000000000000000000000000
310
00000000000000000000000000000000000000000000000000000000000000000000000000000000000004040404040004000000000003000000000000000000000000000000000000000000000000000000000000000000000000000000000000000000000000000000000000000000000000000000000000000000000000
310
00000000000000000000000000000000000000000000070007070000000000000000000000000000000000000000070707070707070707070707070707070707000000000000000000000000000000000000000000000000000000000000000404040404040400000000000700000000000000000000000000000000000000
310
00000000000000000000000000000000000000000000000000000000000000000000000000000000000000000000000000000000000000000000000000000000000000000000000000000007070700070707000000000000000000000000000000000000000000000000000000000000000007070707070707070707070000
310
00000000000000000000000000000000000000000000000000000000000000000007000000000000000000000000000000000000000000000000000000000000000000000000000000000000000000000000000000000000000000000000000000000000000000000000000000000000000000000000000000000000000000
310
07070700070700070707070000000000000000000000000000000000000000070707070707070707070707070707070707070707070707070707070707070707070707070707070707070707070707070707070707070700000000000000000000000000000000000000000000000000000000000000000000000000000000
310
00000000000000000000000000000000000000000000000000000000000000000000000000000000000000000000000000000000070000000707070707070707070707070707000000000000000000000000000000000000000000000000000000000000000000070707070707070707070707070707070707070707070707
310
07070707070707070707000007000000000000000000000000000000000000000000000000000000000000000000000000000000000000000000000000000000000000000000000000000000000000000000000000000000000000000000000000000000000000000007000000000007070700070707070707070707070707
310
07070707070700000000000000000000000000000000000707070707070707070707070707070707070707070707070707070707070707070707070707070000000700000000000000000000000000000000000000000000000000000000000000000000000000000000000000000000000000000000000000000000000000
310
00000000000000000000000000000000000000000000000000000000000007000000000000000000070707070707070707070707070707070707070707070707070707070707070707070707070707070707070707070707070707070707070707070707070707070707070707070707070707000000070000000000000000
310
00000000000000000000000000000000000000000000000000000000000000000000000000000000000000000000000000000000000000000000000000000000000000000000000000000000000000000000000700000000000000000000000707070707070707070707070707070707070707070707070707070707070700
310
00000000000000000000000000000000000000000000000000000000000000000000000000000000000000000700000000000000000000000000000000000000000000000000000000000000000000000000000000000000000000000000000000000000000000000000000000000000000000000000000000000000000000
310
00000000000000000700000707070000000000000000000000000000070707070707070707070707070707070707070707070707070707070707070707070707070707070707070707070707070707070707070707070707070707070707070707070000000000000000000000000000000000000000000000000000000000
310
00000000000000000000000000000000000000000000000000000000000000000000000000000000000000000000000000000000000000000000000000070000000000000000000000000000000000000000000000000000000000000000000000000000000000000000000000000000000000000000000000000000000000
310
00000000000000000000000000000000000000000000000700000000000000000000000000000000000000000000000000000000000000000000000000000000000000000000000000000000000000000000000000000000000000000000000000000000000000000000000000000000000300000000000000000000000000
310
00000000000000000000000000000000000000000000000000000000000000000000000000000000000000000000000000000000000000000000000000000000000000000000000000000000070000000000000000000000000000000000000000000000000000000000000000000000000000000000000000000000000000
310
00000000000000000000000000000000000000000000000000000000000000000000000000000000070700000000000000000000000000000000000000000000000000000000000000000000000000000000000000000000000000000000000000000000000000000000000000000000000000000000000000000000000707
310
07070700000000000000000000000000000000000000000000000000000000000000000000000000000000000000000000000000000000000000000000000000000000000000000000000000000000000000000000000000000000000000000707000000000000000000000000000000000000000000000000000000000000
310
00000000000000000000000000000000000000000000000000000000000000000000000000000000000000000000000000000000070707070000000000000000000000000000000000000000000000000000000000000000000000000000000000000000000000000000000000000000000000000000000000000000000000
310
00000000000000000000000000000000000000000000000707000000000000000000000000000000000000000000000000000000000000000000000000000000000000000000000000000000000000000000000000000000000000000000000000000000000000000000000007000000000000000000000000000000000000
310
00000000000000000000000000000000000000000000000000000000000000000000000000000000000000000000000000000000000000000000000000000000000000000000000000000000000007070000000000000000000000000000000000000000000000000000000000000000000000000000000000000000000000
310
00000000000000000000000000000000000000000000000000000000000000000000070000000000000000000000000000000000000000000000000000000000000000000000000000000000000000000000000000000000000000000000000000000000000000000000000000000000000000000000000000000000000000
310
00000000000007070000000000000000000000000000000000000000000000000000000000000000000000000000000000000000000000000000000000000000000000000000000000000000000000000000000000000007000000000000000000000000000000000000000000000000000000000000000000000000000000
310
00000000000000000000000000000000000000000000000000000000000000000000000000000000000000000000000000000000000000000000000000020707070707070707070707070707070707070707070707070707070707070707070707070707070707070707070707070707070707070707070707070707070707
310
07070707070707070707070707020000000000000000000000000000000000000000000000000000000000000000000000000000000000000000000000000000000000000000000000000000000000000000000000000000000000000000000000000000000000000000000000000000000002000000000000000000000000
310
00000000000000000000000000000000000000000000000000000000000000000000000000000000000000000000000000000000000000000000000000000000000002000000000000000000000000000000000000000000000000000000000000000000000000000000000000000000000000000000000000000000000000
310
00000000000000000000000000000000000000000000000000000000000000000000000000000000020000000000000000000000000000000000000000000000000000000000000000000000000000000000000000000000000000000000000000000000000000000000000000000000000000000000000200000000000000
310
00000000000000000000000000000000000000000000000000000000000000000000000000000000000000000000000000000000000000000000000000000000000000000000000000000000000000000000000000000000000000000002000000000000000000000000000000000000000000000000000000000000000000
310
00000000000000000000000000000000000000000000000000000000000000000000000000000000000000000002000000000000000000000000000000000000000000000000000000000000000000000000000000000000000000000000000000000000000000000000000000000000000000000000000000000000000000
310
00000000000000000000000000000000000000020000000000000000000000000000000000000000000000000000000000000000000000000000000000000000000000000000000000000000000000000000000000000000000000000000000000000200000000000000000000000000000000000000000000000000000000
310
00000000000000000000000000000000000000000000000000000000000000000000000000000000000000000000000000000000000000000000000000000000000000000000000002000000000000000000000000000000000000000000000000000000000000000000000000000000000000000000000000000000000000
310
00000000000000000000000000000000000000000000000002000000000000000000000000000000000000000000000000000000000000000000000000000000000000000000000000000000000000000000000000000000000000000000000000000000000000000000000000000000000000000000000000000000000200
310
00000000000000000000000000000000000000000000000000000000000000000000000000000000000000000000000000000000000000000000000000000000000000000000000000000000000200000000000000000000000000000000000000000000000000000000000000000000000000000000000000000000000000
310
00000000000000000000000000000000000000000000000000000000000000000000000000000000000000000000000000000002000000000000000000000000000000000000000000000000000000000000000000000000000000000000000000000000000000000000000000000000000000000000000000000000000000
310
00000002000000000000000000000000000000000000000000000000000000000000000000000000000000000000000000000000000000000000000000000000000000000000000000000000000000000000000000000000000000000000000000000000000000000200000000000000000000000000000000000000000000
310
00000000000000000000000000000000000000000000000000000000000000000000000000000000000000000000000000000000000000000200000000000000000000000000000000000000000000000000000000000000000000000000000000000000000000000000000000000000000000000000000000000000000000
310
00000000000000000000000000000000000000000000000000000000000002000000000000000000000000000000000000000000000000000000000000000000000000000000000000000000000000000000000000000000000000000000000000000000000000000000000000020000000000000000000000000000000000
310
00000000000000000000000000000000000000000000000000000000000000000000000000000000000000000000000000000000000000000000000000000000000000000000000000000000000000000000000200000000000000000000000000000000000000000000000000000000000000000000000000000000000000
310
00000000000000000000000000000000000000000000000000000000000000000000000200000000000000000000000000000000000000000000000000000000000000000000000000000000000000000000000000000000000000000000000000000000000000000000000000000000000000000000000000000000000000
310
00000000000000000002000000000000000000000000000000000000000000000000000000000000000000000000000000000000000000000000000000000000000000000000000000000000000000000000000000000000020000000000000000000000000000000000000000000000000000000000000000000000000000
310
00000000000000000000000000000000000000000000000000000000000000000000000000000000000000000000000000000000000000000000000000000200000000000000000000000000000000000000000000000000000000000000000000000000000000000000000000000000000000000000000000000000000000
310
00000000000000000000000000000200000000000000000000000000000000000000000000000000000000000000000000000000000000000000000000000000000000000000000000000000000000000000000000000000000000000000000000000000000000000000000000000000000000020000000000000000000000
310
00000000000000000000000000000000000000000000000000000000000000000000000000000000000000000000000000000000000000000000000000000000000000020000000000000000000000000000000000000000000000000000000000000000000000000000000000000000000000000000000000000000000000
310
00000000000000000000000000000000000000000000000000000000000000000000000000000000000200000000000000000000000000000000000000000000000000000000000000000000000000000000000000000000000000000000000000000000000000000000000000000000000000000000000002000000000000
310
00000000000000000000000000000000000000000000000000000000000000000000000000000000000000000000000000000000000000000000000000000000000000000000000000000000000000000000000000000000000000000000020000000000000000000000000000000000000000000000000000000000000000
310
00000000000000000000000000000000000000000000000000000000000000000000000000000000000000000000020000000000000000000000000000000000000000000000000000000000000000000000000000000000000000000000000000000000000000000000000000000000000000000000000000000000000000
310
00000000000000000000000000000000000000000200000000000000000000000000000000000000000000000000000000000000000000000000000000000000000000000000000000000000000000000000000000000000000000000000000000000002000000000000000000000000000000000000000000000000000000
310
00000000000000000000000000000000000000000000000000000000000000000000000000000000000000000000000000000000000000000000000000000000000000000000000000020000000000000000000000000000000000000000000000000000000000000000000000000000000000000000000000000000000000
310
00000000000000000000000000000000000000000000000000020000000000000000000000000000000000000000000000000000000000000000000000000000000000000000000000000000000000000000000000000000000000000000000000000000000000000000000000000000000000000000000000000000000002
310
00000000000000000000000000000000000000000000000000000000000000000000000000000000000000000000000000000000000000000000000000000000000000000000000000000000000002000000000000000000000000000000000000000000000000000000000000000000000000000000000000000000000000
310
00000000000000000000000000000000000000000000000000000000000000000000000000000000000000000000000000000000020000000000000000000000000000000000000000000000000000000000000000000000000000000000000000000000000000000000000000000000000000000000000000000000000000
310
00000000020000000000000000000000000000000000000000000000000000000000000000000000000000000000000000000000000000000000000000000000000000000000000000000000000000000000000000000000000000000000000000000000000000000002000000000000000000000000000000000000000000
310
00000000000000000000000000000000000000000000000000000000000000000000000000000000000000000000000000000000000000000002000000000000000000000000000000000000000000000000000000000000000000000000000000000000000000000000000000000000000000000000000000000000000000
310
00000000000000000000000000000000000000000000000000000000000000020000000000000000000000000000000000000000000000000000000000000000000000000000000000000000000000000000000000000000000000000000000000000000000000000000000000000200000000000000000000000000000000
310
00000000000000000000000000000000000000000000000000000000000000000000000000000000000000000000000000000000000000000000000000000000000000000000000000000000000000000000000002000000000000000000000000000000000000000000000000000000000000000000000000000000000000
310
00000000000000000000000000000000000000000000000000000000000000000000000002000000000000000000000000000000000000000000000000000000000000000000000000000000000000000000000000000000000000000000000000000000000000000000000000000000000000000000000000000000000000
310
00000000000000000000020000000000000000000000000000000000000000000000000000000000000000000000000000000000000000000000000000000000000000000000000000000000000000000000000000000000000200000000000000000000000000000000000000000000000000000000000000000000000000
310
00000000000000000000000000000000000000000000000000000000000000000000000000000000000000000000000000000000000000000000000000000002000000000000000000000000000000000000000000000000000000000000000000000000000000000000000000000000000000000000000000000000000000
310
00000000000000000000000000000002000000000000000000000000000000000000000000000000000000000000000000000000000000000000000000000000000000000000000000000000000000000000000000000000000000000000000000000000000000000000000000000000000000000200000000000000000000
310
00000000000000000000000000000000000000000000000000000000000000000000000000000000000000000000000000000000000000000000000000000000000000000200000000000000000000000000000000000000000000000000000000000000000000000000000000000000000000000000000000000000000000
310
00000000000000000000000000000000000000000000000000000000000000000000000000000000000002000000000000000000000000000000000000000000000000000000000000000000000000000000000000000000000000000000000000000000000000000000000000000000000000000000000000020000000000
310
00000000000000000000000000000000000000000000000000000000000000000000000000000000000000000000000000000000000000000000000000000000000000000000000000000000000000000000000000000000000000000000000200000000000000000000000000000000000000000000000000000000000000
310
00000000000000000000000000000000000000000000000000000000000000000000000000000000000000000000000200000000000000000000000000000000000000000000000000000000000000000000000000000000000000000000000000000000000000000000000000000000000000000000000000000000000000
310
00000000000000000000000000000000000000000002020202020202020202020202020202020202020202020202020202020202020202020202020202020202020202020202020202020202020202020202020202020202020202020202020202020202020000000000000000000000000000000000000000000000000000
310
00000000000000000000000000000000000000000000000000000000000000000000000000000000000000000000000000000000000000000000000000000000000000000000000000000000000000000000000000000000000000000000000000000000000000000000000000000000000000000000000000000000000000
310
00000000000000000000000000000000000000000000000000000000000000000000000000000000000000000000000000000000000000000000000000000000000000000000000000000000000000000000000000000000000000000000000000000000000000000000000000000000000000000000000000000000000000
310
00000000000000000000000000000000000000000000000000000000000000000000000000000000000000000000000000000000000000000000000000000000000000000000000000000000000000000000000000000000000000000000000000000000000000000000000000000000000000000000000000000000000000
310
00000000000000000000000000000000000000000000000000000000000000000000000000000000000000000000000000000000000000000000000000000000000000000000000000000000000000000000000000000000000000000000000000000000000000000000000000000000000000000000000000000000000000
310
00000000000000000000000000000000000000000000000000000000000000000000000000000000000000000000000000000000000000000000000000000000000000000000000000000000000000000000000000000000000000000000000000000000000000000000000000000000000000000000000000000000000000
310
00000000000000000000000000000000000000000000000000000000000000000000000000000000000000000000000000000000000000000000000000000000000000000000000000000000000000000000000000000000000000000000000000000000000000000000000000000000000000000000000000000000000000
310
00000000000000000000000000000000000000000000000000000000000000000000000000000000000000000000000000000000000000000000000000000000000000000000000000000000000000000000000000000000000000000000000000000000000000000000000000000000000000000000000000000000000000
310
00000000000000000000000000000000000000000000000000000000000000000000000000000000000000000000000000000000000000000000000000000000000000000000000000000000000000000000000000000000000000000000000000000000000000000000000000000000000000000000000000000000000000
310
00000000000000000000000000000000000000000000000000000000000000000000000000000000000000000000000000000000000000000000000000000000000000000000000000000000000000000000000000000000000000000000000000000000000000000000000000000000000000000000000000000000000000
310
00000000000000000000000000000000000000000000000000000000000000000000000000000000000000000000000000000000000000000000000000000000000000000000000000000000000000000000000000000000000000000000000000000000000000000000000000000000000000000000000000000000000000
310
00000000000000000000000000000000000000000000000000000000000000000000000000000000000000000000000000000000000000000000000000000000000000000000000000000000000000000000000000000000000000000000000000000000000000000000000000000000000000000000000000000000000000
310
00000000000000000000000000000000000000000000000000000000000000000000000000000000000000000000000000000000000000000000000000000000000000000000000000000000000000000000000000000000000000000000000000000000000000000000000000000000000000000000000000000000000000
310
00000000000000000000000000000000000000000000000000000000000000000000000000000000000000000000000000000000000000000000000000000000000000000000000000000000000000000000000000000000000000000000000000000000000000000000000000000000000000000000000000000000000000
310
00000000000000000000000000000000000000000000000000000000000000000000000000000000000000000000000000000000000000000000000000000000000000000000000000000000000000000000000000000000000000000000000000000000000000000000000000000000000000000000000000000000000000
310
00000000000000000000000000000000000000000000000000000000000000000000000000000000000000000000000000000000000000000000000000000000000000000000000000000000000000000000000000000000000000000000000000000000000000000000000000000000000000000000000000000000000000
310
000000000000000000000000000000000000000000000000000000000000000000000000000000000000000000000000000000000000000000000000000000000000000000000000000000000000000000000000000000000000000000000000000000000000000000000000
  0
ENDSEC
  0
EOF
